CodeSchool - Rails 4: Zombie Outlaws (2013)



CodeSchool - Rails 4: Zombie Outlaws (2013)
1.1 GIDDY UP
2.1 ACTIVERECORD FINDERS
2.8 ACTIVEMODEL
3.1 ACTIVE[RECORD|MODEL]
3.5 FILTERS, SESSION, CUSTOM FLASH TYPES
4.1 VIEWS AND VISTAS
5.1 TEST YOUR METTLE
6.1 ETAGS
6.5 DALLI & CACHE-DIGESTS
7.1 STREAMING- THE EXPRESS PONY
Rails 4 - Zombie Outlaws.pdf
Wrap_Up
Format : MPEG-4
Format profile : Base Media
Codec ID : isom
File size : 72.4 MiB
Duration : 6mn 29s
Overall bit rate : 1 560 Kbps
Encoded date : UTC 2013-03-12 01:29:34
Tagged date : UTC 2013-03-12 01:29:34
Writing application : Lavf54.6.100
Video #1
ID : 1
Format : AVC
Format/Info : Advanced Video Codec
Format profile : Main@L3.1
Format settings, CABAC : Yes
Format settings, ReFrames : 4 frames
Codec ID : avc1
Codec ID/Info : Advanced Video Coding
Duration : 6mn 29s
Bit rate mode : Variable
Bit rate : 1 603 Kbps
Nominal bit rate : 1 500 Kbps
Width : 1 280 pixels
Height : 720 pixels
Display aspect ratio : 16:9
Frame rate mode : Variable
Frame rate : 29.970 fps
Minimum frame rate : 15.000 fps
Maximum frame rate : 30.000 fps
Resolution : 24 bits
Colorimetry : 4:2:0
Scan type : Progressive
Bits/(Pixel*Frame) : 0.058
Stream size : 74.4 MiB
Writing library : x264 core 118
Encoding settings : cabac=1 / ref=2 / deblock=1:0:0 / analyse=0x1:0x111 / me=umh / subme=8 / psy=1 / psy_rd=1.00:0.00 / mixed_ref=1 / me_range=16 / chroma_me=1 / trellis=1 / 8x8dct=0 / cqm=0 / deadzone=21,11 / fast_pskip=1 / chroma_qp_offset=-2 / threads=12 / sliced_threads=0 / nr=0 / decimate=1 / interlaced=0 / bluray_compat=0 / constrained_intra=0 / bframes=3 / b_pyramid=2 / b_adapt=2 / b_bias=0 / direct=1 / weightb=1 / open_gop=0 / weightp=2 / keyint=30 / keyint_min=16 / scenecut=40 / intra_refresh=0 / rc_lookahead=30 / rc=abr / mbtree=1 / bitrate=1500 / ratetol=1.0 / qcomp=0.60 / qpmin=10 / qpmax=51 / qpstep=4 / ip_ratio=1.40 / aq=1:1.00
Language : English
Encoded date : UTC 2013-03-12 01:29:34
Tagged date : UTC 2013-03-21 11:38:33
Audio #2
ID : 2
Format : AAC
Format/Info : Advanced Audio Codec
Format version : Version 4
Format profile : LC
Format settings, SBR : No
Codec ID : 40
Duration : 6mn 29s
Bit rate mode : Variable
Bit rate : 86.0 Kbps
Maximum bit rate : 128 Kbps
Channel(s) : 2 channels
Channel positions : L R
Sampling rate : 48.0 KHz
Resolution : 16 bits
Stream size : 3.99 MiB (6%)
Language : English
Encoded date : UTC 2013-03-12 01:29:34
Tagged date : UTC 2013-03-21 11:38:33
No mirrors please

Railss4_Zombie_outll.part1.rar
Railss4_Zombie_outll.part2.rar
Railss4_Zombie_outll.part3.rar
Railss4_Zombie_outll.part4.rar