CSS: Core Concepts



CSS: Core Concepts
Topics include:
Understanding basic selector types
Integrating CSS with HTML
Examining browser rendering differences
Exploring CSS specifications
Checking browser support
Understanding the box model
Adjusting margins and padding
Positioning elements
Exploring basic layout concepts
Understanding media queries
Introducing CSS3
Using CSS Reset
Format : QuickTime
Format/Info : Original Apple specifications
File size : 10.4 MiB
Duration : 6mn 32s
Overall bit rate : 222 Kbps
Encoded date : UTC 2011-11-21 20:00:34
Tagged date : UTC 2011-11-21 20:00:34
Writing library : Apple QuickTime
Copyright : lynda.com
Video #1
ID : 1
Format : AVC
Format/Info : Advanced Video Codec
Format settings, CABAC : Yes
Format settings, ReFrames : 3 frames
Codec ID : avc1
Codec ID/Info : Advanced Video Coding
Duration : 6mn 32s
Bit rate mode : Variable
Bit rate : 123 Kbps
Width : 960 pixels
Height : 540 pixels
Display aspect ratio : 16:9
Frame rate mode : Constant
Frame rate : 15.000 fps
Resolution : 24 bits
Colorimetry : 4:2:0
Scan type : Progressive
Bits/(Pixel*Frame) : 0.016
Stream size : 5.77 MiB (55%)
Encoded date : UTC 2011-11-21 20:00:34
Tagged date : UTC 2011-11-21 20:00:34
Audio #2
ID : 2
Format : AAC
Format/Info : Advanced Audio Codec
Format version : Version 4
Format profile : LC
Format settings, SBR : No
Format settings, PS : Yes
Codec ID : 40
Duration : 6mn 32s
Bit rate mode : Variable
Bit rate : 96.0 Kbps
Maximum bit rate : 99.7 Kbps
Channel(s) : 2 channels
Channel positions : Front: L R
Sampling rate : 48.0 KHz
Resolution : 16 bits
Stream size : 4.49 MiB (43%)
Encoded date : UTC 2011-11-21 20:00:34
Tagged date : UTC 2011-11-21 20:00:34
No mirrors please

[email protected]
CSS-_Coru_Conca.part1.rar
CSS-_Coru_Conca.part2.rar
CSS-_Coru_Conca.part3.rar
CSS-_Coru_Conca.part4.rar
CSS-_Coru_Conca.part5.rar