Maya Exterior Environment Creation



Maya Exterior Environment Creation
Today we are happy to release the first ‘day’ of a new multi-part tutorial series by Cgtuts+ regular Ivan Krushkov. This in-depth series focuses on the creation of an exterior scene in Maya. In day 1 we’ll start the project off by modeling our environment from the ground up, exploring the many different modeling tools and techniques Maya has to offer!
Content:
Day 1
This in-depth series focuses on the creation of an exterior scene in Maya. In day 1 we’ll start the project off by modeling our environment from the ground up, exploring the many different modeling tools and techniques Maya has to offer!
Day 2
Today Ivan Krushkov brings us day 2 of his Exterior Environment Creation tutorial series for Maya. In today’s post Ivan will wrap up the modeling portion of the project by adding the remaining details to the scene. With the modeling complete, he’ll move onto cleaning up and prepare the geometry for UVMapping.
Day 3
As many of you know, uvmapping can be a difficult and time consuming task, not to mention confusing to those with little experience in the area. In day 3 of the Exterior Environment Creation tutorial series. Ivan will guide us through the process of uvmapping the entire exterior scene using a combination of Maya’s built in mapping tools and Headus UVLayout, a third party uvmapping program.
Day 4
In day 4 of the Exterior Environment Creation tutorial series, Ivan will cover the basics of texturing the scene using Maya and Photoshop. We’ll look at creating diffuse, bump, specular and displacement maps for our scene, as well as setting up the necessary shaders in Maya.
Day 5
Today we bring the fifth and final part of Ivan Krushkov’s Exterior Environment Creation tutorial series. In day 5 we’ll finish up the texturing work by adding the final details to our maps, before rendering our scene and moving into Photoshop for final compositing and color correction.
General
Complete name : Cgtuts-MayaExteriorEnvironmentCreationDay4Pt2767.m4v
Format : MPEG-4
Codec ID : M4V
File size : 41.1 MiB
Duration : 10mn 25s
Overall bit rate mode : Variable
Overall bit rate : 551 Kbps
Writing application : Lavf52.62.0
Video #1
ID : 1
Format : AVC
Format/Info : Advanced Video Codec
Format profile : High@L3.1
Format settings, CABAC : Yes
Format settings, ReFrames : 4 frames
Codec ID : avc1
Codec ID/Info : Advanced Video Coding
Duration : 10mn 25s
Bit rate : 420 Kbps
Width : 1 280 pixels
Height : 720 pixels
Display aspect ratio : 16:9
Frame rate mode : Constant
Frame rate : 29.970 fps
Color space : YUV
Chroma subsampling : 4:2:0
Bit depth : 8 bits
Scan type : Progressive
Bits/(Pixel*Frame) : 0.015
Stream size : 31.4 MiB (76%)
Writing library : x264 core 98 r1629 2e81ce1
Encoding settings : cabac=1 / ref=4 / deblock=1:0:0 / analyse=0x3:0x113 / me=umh / subme=8 / psy=1 / psy_rd=1.00:0.00 / mixed_ref=1 / me_range=16 / chroma_me=1 / trellis=1 / 8x8dct=1 / cqm=0 / deadzone=21,11 / fast_pskip=1 / chroma_qp_offset=-2 / threads=12 / sliced_threads=0 / nr=0 / decimate=1 / interlaced=0 / constrained_intra=0 / bframes=3 / b_pyramid=0 / b_adapt=2 / b_bias=0 / direct=3 / weightb=1 / weightp=2 / keyint=250 / keyint_min=25 / scenecut=40 / intra_refresh=0 / rc_lookahead=40 / rc=crf / mbtree=1 / crf=22.0 / qcomp=0.60 / qpmin=10 / qpmax=51 / qpstep=4 / ip_ratio=1.41 / aq=1:1.00
Language : English
Tagged date : UTC 2011-07-18 23:46:27
Audio #2
ID : 2
Format : AAC
Format/Info : Advanced Audio Codec
Format profile : LC
Codec ID : 40
Duration : 10mn 25s
Bit rate mode : Variable
Bit rate : 128 Kbps
Channel(s) : 2 channels
Channel positions : Front: L R
Sampling rate : 48.0 KHz
Compression mode : Lossy
Stream size : 9.55 MiB (23%)
Language : English
Tagged date : UTC 2011-07-18 23:46:27Screenshots
For more, Visit my
no mirrors please, Follow The Rules

http://cg.tutsplus.com/tutorials/autodesk-maya/3d_cg_vfx_autodesk_maya_modeling_uvmapping_texturing_exterior_environment/
CGTUTS Maya Exterior Environment Creation All 5 Days.part5.rar
CGTUTS Maya Exterior Environment Creation All 5 Days.part4.rar
CGTUTS Maya Exterior Environment Creation All 5 Days.part3.rar
CGTUTS Maya Exterior Environment Creation All 5 Days.part2.rar
CGTUTS Maya Exterior Environment Creation All 5 Days.part1.rar