Build a Milling Machine with Jose Rodriguez (All 3 Discs)



Build a Milling Machine with Jose Rodriguez (All 3 Discs)
Genre: Video Training, Metalworking
This video provides complete instructions for building a milling machine. Jose says: 'In this nearly 12 hour long video marathon, you will witness the seemingly impossible! Observe the author as he builds a fully operating and capable 80 pound variable speed milling machine with existing TAIG Micro lathe components and readily available stock aluminum material. A commercial heavy duty X & Y milling table is utilized to complete the project. This is definitively not a 'TOY' but a complete milling center that will outperform just about anything in its class. For a total expenditure of less than $300. You too could have a tool that will perform better than milling machines costing more than twice as much. This video will take you through every step from its initial conception and planning to and beyond its very successful conclusion in painstaking detail so that you too will be able to easily duplicate this achievement! As an extra bonus, you will be treated to a fully narrative and visual step by step presentation on the building of a 60:1 geared dividing head that with the addition of a simple shop made indexing accessory will allow it to divide anything into as many as 21,600 equal divisions and for that matter, any other number divisible into that. You will also learn how to easily cut perfectly fitting dovetailed sliding joints with the simplest of equipment. These two items alone would be worth the price of this video set. See how to produce a professional quality engraved dial with nothing more than a small lathe ( TAIG ). You will see each component being worked, fitted and assembled as the unit is magically transformed more and more into a 'REAL' milling machine. The final two hours or so will be devoted to a full battery of milling operations performed on real components that make up part of the geared dividing head including other milling goodies. During the filming of the final milling tests, cuts were routinely taken on 6061-T6 alloy to depths of over 90 thou with a common imported 1/4'' diameter four flute end mill. We do not recommend that you routinely cut to those depths but it sure is nice to be able to so when needed.
This a definite 'MUST' for anyone who has grown tired of using alternative milling methods but either is not ready to invest the big bucks for a commercially available bench top milling machine or simply not satisfied with what's presently available out there.
General
Complete name : Build a Milling Machine with Jose Rodriguez Disc1.avi
Format : AVI
Format/Info : Audio Video Interleave
Format profile : OpenDML
File size : 2.23 GiB
Duration : 3h 56mn
Overall bit rate : 1 345 Kbps
Video
ID : 0
Format : MPEG-4 Visual
Format profile : Simple@L3
Format settings, BVOP : No
Format settings, QPel : No
Format settings, GMC : No warppoints
Format settings, Matrix : Default (H.263)
Codec ID : XVID
Codec ID/Hint : XviD
Duration : 3h 56mn
Source duration : 3h 56mn
Bit rate : 1 200 Kbps
Width : 640 pixels
Height : 480 pixels
Display aspect ratio : 4:3
Frame rate : 29.970 fps
Color space : YUV
Chroma subsampling : 4:2:0
Bit depth : 8 bits
Scan type : Progressive
Compression mode : Lossy
Bits/(Pixel*Frame) : 0.130
Stream size : 1.99 GiB (89%)
Writing library : Magic0432
Audio
ID : 1
Format : MPEG Audio
Format version : Version 1
Format profile : Layer 3
Mode : Joint stereo
Mode extension : MS Stereo
Codec ID : 55
Codec ID/Hint : MP3
Duration : 3h 56mn
Bit rate mode : Constant
Bit rate : 128 Kbps
Channel(s) : 2 channels
Sampling rate : 44.1 KHz
Compression mode : Lossy
Stream size : 217 MiB (10%)
Alignment : Aligned on interleaves
Interleave, duration : 26 ms (0.78 video frame)
Screenshots
no mirrors please.
no password

Build a Milling Machine with Jose Rodriguez.part07.rar
Build a Milling Machine with Jose Rodriguez.part14.rar
Build a Milling Machine with Jose Rodriguez.part13.rar
Build a Milling Machine with Jose Rodriguez.part12.rar
Build a Milling Machine with Jose Rodriguez.part11.rar
Build a Milling Machine with Jose Rodriguez.part10.rar
Build a Milling Machine with Jose Rodriguez.part09.rar
Build a Milling Machine with Jose Rodriguez.part08.rar
Build a Milling Machine with Jose Rodriguez.part06.rar
Build a Milling Machine with Jose Rodriguez.part01.rar
Build a Milling Machine with Jose Rodriguez.part05.rar
Build a Milling Machine with Jose Rodriguez.part04.rar
Build a Milling Machine with Jose Rodriguez.part03.rar
Build a Milling Machine with Jose Rodriguez.part02.rar