Pluralsight - Website Performance (2014)



Pluralsight - Website Performance (2014)
website-performance.zip

├───01. Introduction
│ 01. Introduction.mp4

├───02. Make Performance a Priority
│ 01. Why Web Performance .mp4
│ 02. Performance and User Experience.mp4
│ 03. How We Get Web Performance.mp4
│ 04. Focus on the Critical Path.mp4
│ 05. The Total Cost of Ownership.mp4

├───03. The Middle-End YSlow
│ 01. YSlow Rules.mp4
│ 02. YSlow Rules, Continued.mp4
│ 03. Beyond the Big 14.mp4
│ 04. Exercise 1.mp4

├───04. The Middle-End Resources
│ 01. Images.mp4
│ 02. Minification.mp4
│ 03. Exercise 2.mp4

├───05. The Middle-End Architecture & Communication
│ 01. Understanding the Middle-end.mp4
│ 02. Introduction to Architecture.mp4
│ 03. Data Validation.mp4
│ 04. JSON, Ajax, & Web Sockets.mp4

├───06. The Front-End Resource Loading
│ 01. Preloading Images.mp4
│ 02. Lazy Loading.mp4
│ 03. Parallel Loading.mp4

├───07. The Front-End Abstractions & Animation
│ 01. OO is Slower.mp4
│ 02. Exercise 4.mp4
│ 03. javascript Animations.mp4
│ 04. CSS Transition vs. CSS Animation.mp4
│ 05. Exercise 5.mp4

├───08. The Front-End UI Thread, Garbage Collection & jsPerf
│ 01. The Single Threaded Browser.mp4
│ 02. Threaded javascript.mp4
│ 03. Dynamic Memory Allocation.mp4
│ 04. Exercise 6.mp4
│ 05. Introduction jsPerf.mp4
│ 06. javascript Performance Mythbusters.mp4
│ 07. Exercise 7.mp4

└───09. Conclusion
01. Conclusion.mp4
Format : MPEG-4
Format profile : Base Media / Version 2
Codec ID : mp42
File size : 63.7 MiB
Duration : 10mn 7s
Overall bit rate : 879 Kbps
Encoded date : UTC 2014-01-19 23:59:57
Tagged date : UTC 2014-01-20 00:01:21
Writing application : HandBrake 0.9.8 2012071700
Video #1
ID : 1
Format : AVC
Format/Info : Advanced Video Codec
Format settings, CABAC : No
Format settings, ReFrames : 2 frames
Codec ID : avc1
Codec ID/Info : Advanced Video Coding
Duration : 10mn 7s
Bit rate mode : Variable
Bit rate : 748 Kbps
Width : 1 024 pixels
Height : 768 pixels
Display aspect ratio : 4:3
Frame rate mode : Variable
Frame rate : 23.976 fps
Minimum frame rate : 11.989 fps
Maximum frame rate : 23.981 fps
Resolution : 24 bits
Colorimetry : 4:2:0
Scan type : Progressive
Bits/(Pixel*Frame) : 0.040
Stream size : 54.2 MiB (85%)
Writing library : x264 core 120
Encoding settings : cabac=0 / ref=2 / deblock=1:0:0 / analyse=0x1:0x111 / me=umh / subme=6 / psy=1 / psy_rd=1.00:0.00 / mixed_ref=1 / me_range=16 / chroma_me=1 / trellis=0 / 8x8dct=0 / cqm=0 / deadzone=21,11 / fast_pskip=1 / chroma_qp_offset=-2 / threads=12 / sliced_threads=0 / nr=0 / decimate=1 / interlaced=0 / bluray_compat=0 / constrained_intra=0 / bframes=0 / weightp=0 / keyint=50 / keyint_min=24 / scenecut=40 / intra_refresh=0 / rc_lookahead=40 / rc=crf / mbtree=1 / crf=20.0 / qcomp=0.60 / qpmin=3 / qpmax=69 / qpstep=4 / ip_ratio=1.40 / aq=1:1.00
Encoded date : UTC 2014-01-19 23:59:57
Tagged date : UTC 2014-01-20 00:01:20
colour_primaries : BT.709-5, BT.1361, IEC 61966-2-4, SMPTE RP177
transfer_characteristics : BT.709-5, BT.1361
matrix_coefficients : BT.709-5, BT.1361, IEC 61966-2-4 709, SMPTE RP177
Audio #2
ID : 2
Format : AAC
Format/Info : Advanced Audio Codec
Format version : Version 4
Format profile : LC
Format settings, SBR : No
Codec ID : 40
Duration : 10mn 7s
Bit rate mode : Variable
Bit rate : 128 Kbps
Maximum bit rate : 154 Kbps
Channel(s) : 2 channels
Channel positions : L R
Sampling rate : 44.1 KHz
Resolution : 16 bits
Stream size : 9.27 MiB (15%)
Language : English
Encoded date : UTC 2014-01-19 23:59:57
Tagged date : UTC 2014-01-20 00:01:20
No mirrors please

[email protected]
Website_Performance.part1.rar
Website_Performance.part2.rar
Website_Performance.part3.rar
Website_Performance.part4.rar
Website_Performance.part5.rar
Website_Performance.part6.rar
Website_Performance.part7.rar