Tracy Anderson - The Pregnancy Project (2012)



Tracy Anderson - The Pregnancy Project (2012)
While pregnant with her son 13 years ago, Tracy gained over 60 pounds. It was this significant weight gain, along with a weight gain that Tracy experienced while studying dance, which propelled her to research and develop the Tracy Anderson Method. After announcing her second pregnancy in 2012, Tracy Anderson began production on a series of pregnancy workout DVDs to serve as a guide for women throughout their pregnancy. Similar to Tracy’s successful Metamorphosis DVDs, this series contains many more tools than just the workouts. The series contains nine different workouts, one workout focused on each month of pregnancy, which Tracy filmed in real time. In addition to the workouts, the series contains interviews with doctors, mothers, Tracy’s clients, and various experts on pregnancy. The advice from these experts also include testimonials from Tracy’s clients that have been able to attribute their post-pregnancy bodies to Tracy’s method. The Pregnancy Project is designed to be a guide for expectant parents and covers everything from nutrition, to fitness, to the leading studies on pregnancy. Tracy already has a tremendously successful post-pregnancy workout DVD, with over 1 million copies sold, and this project is designed to be a much more comprehensive tool for women at all stages of pregnancy and motherhood.
General
Complete name : Tracy Anderson - The Pregnancy Project_04.avi
Format : AVI
Format/Info : Audio Video Interleave
File size : 476 MiB
Duration : 36mn 29s
Overall bit rate : 1 824 Kbps
Movie name : Tracy Anderson - The Pregnancy Project_04
Writing application : FairUse Wizard - http://fairusewizard.com
Copyright : Olu6ka
Video #0
ID : 0
Format : MPEG-4 Visual
Format profile : Advanced Simple@L5
Format settings, BVOP : Yes
Format settings, QPel : No
Format settings, GMC : No warppoints
Format settings, Matrix : Custom
Codec ID : XVID
Codec ID/Hint : XviD
Duration : 36mn 29s
Bit rate : 1 686 Kbps
Width : 720 pixels
Height : 400 pixels
Display aspect ratio : 16:9
Frame rate : 23.976 fps
Color space : YUV
Chroma subsampling : 4:2:0
Bit depth : 8 bits
Scan type : Progressive
Compression mode : Lossy
Bits/(Pixel*Frame) : 0.244
Stream size : 440 MiB (92%)
Writing library : XviD 65
Audio #1
ID : 1
Format : MPEG Audio
Format version : Version 1
Format profile : Layer 3
Mode : Joint stereo
Mode extension : MS Stereo
Codec ID : 55
Codec ID/Hint : MP3
Duration : 36mn 29s
Bit rate mode : Constant
Bit rate : 128 Kbps
Channel(s) : 2 channels
Sampling rate : 48.0 KHz
Compression mode : Lossy
Stream size : 33.4 MiB (7%)
Alignment : Split accross interleaves
Interleave, duration : 42 ms (1.00 video frame)
Interleave, preload duration : 500 msScreenshots
For more, Visit my
no mirrors please, Follow The Rules


Tracy_Anderson_-_The_Pregnancy_Project_(2012_-_DVDRip).part01.rar
Tracy_Anderson_-_The_Pregnancy_Project_(2012_-_DVDRip).part02.rar
Tracy_Anderson_-_The_Pregnancy_Project_(2012_-_DVDRip).part03.rar
Tracy_Anderson_-_The_Pregnancy_Project_(2012_-_DVDRip).part04.rar
Tracy_Anderson_-_The_Pregnancy_Project_(2012_-_DVDRip).part05.rar
Tracy_Anderson_-_The_Pregnancy_Project_(2012_-_DVDRip).part06.rar
Tracy_Anderson_-_The_Pregnancy_Project_(2012_-_DVDRip).part07.rar
Tracy_Anderson_-_The_Pregnancy_Project_(2012_-_DVDRip).part08.rar
Tracy_Anderson_-_The_Pregnancy_Project_(2012_-_DVDRip).part09.rar
Tracy_Anderson_-_The_Pregnancy_Project_(2012_-_DVDRip).part10.rar
Tracy_Anderson_-_The_Pregnancy_Project_(2012_-_DVDRip).part11.rar
Tracy_Anderson_-_The_Pregnancy_Project_(2012_-_DVDRip).part12.rar
Tracy_Anderson_-_The_Pregnancy_Project_(2012_-_DVDRip).part13.rar
Tracy_Anderson_-_The_Pregnancy_Project_(2012_-_DVDRip).part14.rar
Tracy_Anderson_-_The_Pregnancy_Project_(2012_-_DVDRip).part15.rar
Tracy_Anderson_-_The_Pregnancy_Project_(2012_-_DVDRip).part16.rar
Tracy_Anderson_-_The_Pregnancy_Project_(2012_-_DVDRip).part17.rar
Tracy_Anderson_-_The_Pregnancy_Project_(2012_-_DVDRip).part18.rar
Tracy_Anderson_-_The_Pregnancy_Project_(2012_-_DVDRip).part19.rar