Video2Brain - Introducing the javascript Language



Video2Brain - Introducing the javascript Language
Introduction 1m 31s
Welcome 1m 31s
1. Getting Started 18m 3s
Syntax: Learning to read and write 1m 29s
Web browsers for learning javascript 4m 8s
How to enable Firebug and web inspectors 6m 50s
Our friend, the text editor 3m 35s
Additional helpful resources 2m 1s
2. Variables and Types 20m 11s
Declaring and assigning a variable 7m 9s
Numbers 3m 28s
Strings 6m 9s
Booleans and the quest for truth 3m 25s
3. Objects, Arrays, and More 44m 5s
Objects 6m 52s
Manipulating objects 4m 31s
Objects and references 3m 24s
Arrays 6m 2s
Manipulating arrays 7m 27s
Readability: Whitespace 3m 38s
Readability: Comments 4m 55s
Regular expressions 7m 16s
4. Operators and Control Structures 43m 45s
Simple comparisons 4m 33s
Arithmetic operators 6m 54s
Logical operators 7m 5s
Conditionals: If 7m 7s
Conditionals: Switch 5m 59s
Terse ifs: one-liners and the ternary operator 6m 36s
Type checking 5m 31s
5. Iterating with Loops 20m 29s
For loops: Sequential 8m 1s
For loops: Enumerative 4m 58s
While loops 7m 30s
6. Functions 26m 2s
Basic functions 2m 19s
Basic uses of functions 4m 23s
More on arguments 4m 13s
Objects, references, and functions 4m 56s
Functions are objects 4m 41s
Understanding variable scope 5m 30s
Format : MPEG-4
Format profile : Base Media / Version 2
Codec ID : mp42
File size : 20.1 MiB
Duration : 6mn 36s
Overall bit rate : 424 Kbps
Movie name : 04.06 Terse Ifs: One-Liners and Ternary Operator
Album : Introducing the javascript Language
Track name/Position : 23
Track name/Total : 33
Performer : Joe Chellman
Genre : Video-Training
Encoded date : 2012
Tagged date : UTC 2012-11-20 13:48:26
Writing application : Sorenson Squeeze
Copyright : © 2012, video2brain GmbH
Cover : Yes
Comment : Encoded by
desc : If statements are used so commonly in programming that there are often very short ways to express them, which saves a bit of typing.
ldes : If statements are used so commonly in programming that there are often very short ways to express them, which saves a bit of typing. In this lesson, we'll look at some of the shorter ways of expressing if statements (while not necessarily recommending that you use them).
catg : Video-Training
stik : 10
tvsh : Introducing the javascript Language
Video #2
ID : 2
Format : AVC
Format/Info : Advanced Video Codec
Format settings, CABAC : Yes
Format settings, ReFrames : 4 frames
Codec ID : avc1
Codec ID/Info : Advanced Video Coding
Duration : 6mn 36s
Bit rate mode : Variable
Bit rate : 350 Kbps
Nominal bit rate : 450 Kbps
Width : 1 280 pixels
Height : 720 pixels
Display aspect ratio : 16:9
Frame rate mode : Constant
Frame rate : 25.000 fps
Resolution : 24 bits
Colorimetry : 4:2:0
Scan type : Progressive
Bits/(Pixel*Frame) : 0.015
Stream size : 16.6 MiB (83%)
Writing library : x264 core 115
Encoding settings : cabac=1 / ref=3 / deblock=1:0:0 / analyse=0x1:0x111 / me=hex / subme=7 / psy=1 / psy_rd=1.00:0.00 / mixed_ref=1 / me_range=16 / chroma_me=1 / trellis=1 / 8x8dct=0 / cqm=0 / deadzone=21,11 / fast_pskip=1 / chroma_qp_offset=-2 / threads=3 / sliced_threads=0 / nr=0 / decimate=1 / interlaced=0 / bluray_compat=0 / constrained_intra=0 / bframes=3 / b_pyramid=2 / b_adapt=1 / b_bias=0 / direct=1 / weightb=1 / open_gop=0 / weightp=2 / keyint=75 / keyint_min=7 / scenecut=50 / intra_refresh=0 / rc_lookahead=40 / rc=2pass / mbtree=1 / bitrate=450 / ratetol=1.0 / qcomp=0.60 / qpmin=0 / qpmax=69 / qpstep=4 / cplxblur=20.0 / qblur=0.5 / ip_ratio=1.40 / aq=1:1.00
Encoded date : UTC 2012-10-30 16:35:03
Tagged date : UTC 2012-10-30 16:35:03
Audio #1
ID : 1
Format : AAC
Format/Info : Advanced Audio Codec
Format version : Version 4
Format profile : LC
Format settings, SBR : No
Format settings, PS : Yes
Codec ID : 40
Duration : 6mn 36s
Bit rate mode : Constant
Bit rate : 64.0 Kbps
Channel(s) : 2 channels
Channel positions : Front: L R
Sampling rate : 44.1 KHz
Resolution : 16 bits
Stream size : 3.03 MiB (15%)
Encoded date : UTC 2012-10-30 16:35:03
Tagged date : UTC 2012-10-30 16:35:03
No mirrors please

[email protected]
Introduce_javascriptt_Lang.part1.rar
Introduce_javascriptt_Lang.part2.rar
Introduce_javascriptt_Lang.part3.rar