Video2Brain - Photoshop CS6: New Features Workshop (2012)



Video2Brain - Photoshop CS6: New Features Workshop (2012)
Format : MPEG-4
Format profile : Base Media / Version 2
Codec ID : mp42
File size : 22.2 MiB
Duration : 8mn 24s
Overall bit rate : 370 Kbps
Movie name : 07.05 Advanced 3D Features
Album : Photoshop CS6: New Features Workshop
Track name/Position : 36
Track name/Total : 38
Performer : Olaf Giermann
Genre : Video-Training
Encoded date : 2012
Tagged date : UTC 2012-05-22 08:01:27
Writing application : Sorenson Squeeze
Copyright : © 2012, video2brain GmbH
Cover : Yes
desc : In this lesson you will learn about some of the more advanced 3D features in Photoshop CS6. You'll see how to create more complex extrusions and navigate using the Cage control.
ldes : In this lesson you will learn about some of the more advanced 3D features in Photoshop CS6. You'll see how to create more complex extrusions and navigate using the Cage control.
catg : Video-Training
stik : 10
tvsh : Photoshop CS6: New Features Workshop
Video #2
ID : 2
Format : AVC
Format/Info : Advanced Video Codec
Format profile : Baseline@L3.1
Format settings, CABAC : No
Format settings, ReFrames : 3 frames
Codec ID : avc1
Codec ID/Info : Advanced Video Coding
Duration : 8mn 24s
Bit rate mode : Variable
Bit rate : 300 Kbps
Width : 1 280 pixels
Height : 720 pixels
Display aspect ratio : 16:9
Frame rate mode : Variable
Frame rate : 25.000 fps
Minimum frame rate : 10.909 fps
Maximum frame rate : 25.000 fps
Resolution : 24 bits
Colorimetry : 4:2:0
Scan type : Progressive
Bits/(Pixel*Frame) : 0.013
Stream size : 18.0 MiB (81%)
Writing library : x264 core 115
Encoding settings : cabac=0 / ref=3 / deblock=1:0:0 / analyse=0x1:0x111 / me=hex / subme=7 / psy=1 / psy_rd=1.00:0.00 / mixed_ref=1 / me_range=16 / chroma_me=1 / trellis=1 / 8x8dct=0 / cqm=0 / deadzone=21,11 / fast_pskip=1 / chroma_qp_offset=-2 / threads=12 / sliced_threads=0 / nr=0 / decimate=1 / interlaced=0 / bluray_compat=0 / constrained_intra=0 / bframes=0 / weightp=0 / keyint=74 / keyint_min=7 / scenecut=50 / intra_refresh=0 / rc_lookahead=40 / rc=2pass / mbtree=1 / bitrate=300 / ratetol=1.0 / qcomp=0.60 / qpmin=0 / qpmax=69 / qpstep=4 / cplxblur=20.0 / qblur=0.5 / ip_ratio=1.40 / aq=1:1.00
Encoded date : UTC 2012-04-25 09:23:12
Tagged date : UTC 2012-04-25 09:23:12
Audio #1
ID : 1
Format : AAC
Format/Info : Advanced Audio Codec
Format version : Version 4
Format profile : LC
Format settings, SBR : No
Format settings, PS : Yes
Codec ID : 40
Duration : 8mn 24s
Bit rate mode : Constant
Bit rate : 64.0 Kbps
Channel(s) : 2 channels
Channel positions : Front: L R
Sampling rate : 44.1 KHz
Resolution : 16 bits
Stream size : 3.85 MiB (17%)
Encoded date : UTC 2012-04-25 09:23:12
Tagged date : UTC 2012-04-25 09:23:12
No mirrors please

Photoshop CS6 New Features Workshop_2012.part1.rar
Photoshop CS6 New Features Workshop_2012.part2.rar
Photoshop CS6 New Features Workshop_2012.part3.rar
Photoshop CS6 New Features Workshop_2012.part4.rar