Color Correction in Final Cut Pro X



Color Correction in Final Cut Pro X
Topics include:
Understanding the video scopes
Using Balance Color and Match Color
Fixing under- and overexposed clips
Expanding contrast
Controlling saturation
Using color and shape masks
Creating looks with primary and secondary corrections
Format : QuickTime
Format/Info : Original Apple specifications
File size : 13.5 MiB
Duration : 5mn 13s
Overall bit rate : 361 Kbps
Encoded date : UTC 2011-12-20 20:21:32
Tagged date : UTC 2011-12-20 20:21:32
Writing library : Apple QuickTime
Copyright : lynda.com
Video #2
ID : 2
Format : AVC
Format/Info : Advanced Video Codec
Format profile : Main@L3.1
Format settings, CABAC : Yes
Format settings, ReFrames : 3 frames
Codec ID : avc1
Codec ID/Info : Advanced Video Coding
Duration : 5mn 13s
Bit rate mode : Variable
Bit rate : 230 Kbps
Width : 960 pixels
Height : 600 pixels
Display aspect ratio : 1.600
Frame rate mode : Constant
Frame rate : 15.000 fps
Resolution : 24 bits
Colorimetry : 4:2:0
Scan type : Progressive
Bits/(Pixel*Frame) : 0.027
Stream size : 8.59 MiB (64%)
Encoded date : UTC 2011-12-20 20:21:32
Tagged date : UTC 2011-12-20 20:21:32
Audio #1
ID : 1
Format : AAC
Format/Info : Advanced Audio Codec
Format version : Version 4
Format profile : LC
Format settings, SBR : No
Codec ID : 40
Duration : 5mn 13s
Bit rate mode : Variable
Bit rate : 128 Kbps
Maximum bit rate : 133 Kbps
Channel(s) : 2 channels
Channel positions : L R
Sampling rate : 48.0 KHz
Resolution : 16 bits
Stream size : 4.78 MiB (35%)
Encoded date : UTC 2011-12-20 20:21:32
Tagged date : UTC 2011-12-20 20:21:32
No mirrors please

Cole_Core_Fin_Cut_Pro_X.part1.rar
Cole_Core_Fin_Cut_Pro_X.part2.rar
Cole_Core_Fin_Cut_Pro_X.part3.rar
Cole_Core_Fin_Cut_Pro_X.part4.rar
Cole_Core_Fin_Cut_Pro_X.part5.rar
Cole_Core_Fin_Cut_Pro_X.part6.rar