Video2Brain - 11 Tricks for Faster Photo Processing with Bridge and Photoshop



Video2Brain - 11 Tricks for Faster Photo Processing with Bridge and Photoshop
Format : MPEG-4
Format profile : Base Media / Version 2
Codec ID : mp42
File size : 13.7 MiB
Duration : 6mn 53s
Overall bit rate : 279 Kbps
Encoded date : UTC 2011-04-20 07:55:38
Tagged date : UTC 2011-04-20 07:55:38
Writing library : Apple QuickTime
Video #1
ID : 1
Format : AVC
Format/Info : Advanced Video Codec
Format settings, CABAC : No
Format settings, ReFrames : 3 frames
Codec ID : avc1
Codec ID/Info : Advanced Video Coding
Duration : 6mn 53s
Bit rate mode : Variable
Bit rate : 213 Kbps
Width : 1 280 pixels
Height : 720 pixels
Display aspect ratio : 16:9
Frame rate mode : Constant
Frame rate : 15.000 fps
Standard : Component
Resolution : 24 bits
Colorimetry : 4:2:0
Scan type : Progressive
Bits/(Pixel*Frame) : 0.015
Stream size : 10.5 MiB (76%)
Encoded date : UTC 2011-04-20 07:55:38
Tagged date : UTC 2011-04-20 07:55:38
Audio #2
ID : 2
Format : AAC
Format/Info : Advanced Audio Codec
Format version : Version 4
Format profile : LC
Format settings, SBR : No
Format settings, PS : Yes
Codec ID : 40
Duration : 6mn 53s
Bit rate mode : Variable
Bit rate : 64.0 Kbps
Maximum bit rate : 67.8 Kbps
Channel(s) : 2 channels
Channel positions : Front: L R
Sampling rate : 44.1 KHz
Resolution : 16 bits
Stream size : 3.16 MiB (23%)
Encoded date : UTC 2011-04-20 07:55:38
Tagged date : UTC 2011-04-20 07:55:38
No mirrors please

[email protected]
11_Tricks_for_Faster_Photo_Processing_with_Bridge_and_Photoshop.part1.rar
11_Tricks_for_Faster_Photo_Processing_with_Bridge_and_Photoshop.part2.rar
11_Tricks_for_Faster_Photo_Processing_with_Bridge_and_Photoshop.part3.rar