Udemy - Photo Gallery with Image Tagging (2013)



Udemy - Photo Gallery with Image Tagging (2013)
Format : MPEG-4
Format profile : Base Media
Codec ID : isom
File size : 14.5 MiB
Duration : 4mn 59s
Overall bit rate : 405 Kbps
Encoded date : UTC 2013-09-01 09:40:41
Tagged date : UTC 2013-09-01 09:40:41
Video #1
ID : 1
Format : AVC
Format/Info : Advanced Video Codec
Format profile : Baseline@L3.1
Format settings, CABAC : No
Format settings, ReFrames : 3 frames
Codec ID : avc1
Codec ID/Info : Advanced Video Coding
Duration : 4mn 59s
Bit rate mode : Variable
Bit rate : 356 Kbps
Maximum bit rate : 3 124 Kbps
Width : 960 pixels
Height : 600 pixels
Display aspect ratio : 1.600
Frame rate mode : Constant
Frame rate : 25.000 fps
Resolution : 24 bits
Colorimetry : 4:2:0
Scan type : Progressive
Bits/(Pixel*Frame) : 0.025
Stream size : 12.7 MiB (88%)
Writing library : Zencoder Video Encoding System
Encoded date : UTC 2013-09-01 09:40:28
Tagged date : UTC 2013-09-01 09:40:41
Audio #2
ID : 2
Format : AAC
Format/Info : Advanced Audio Codec
Format version : Version 4
Format profile : LC
Format settings, SBR : No
Format settings, PS : Yes
Codec ID : 40
Duration : 4mn 59s
Bit rate mode : Variable
Bit rate : 48.0 Kbps
Maximum bit rate : 51.4 Kbps
Channel(s) : 2 channels
Channel positions : Front: L R
Sampling rate : 44.1 KHz
Resolution : 16 bits
Stream size : 1.66 MiB (11%)
Encoded date : UTC 2013-09-01 09:40:41
Tagged date : UTC 2013-09-01 09:40:41
No mirrors please

Photo_Galy_Imagy_Tage.part1.rar
Photo_Galy_Imagy_Tage.part2.rar
Photo_Galy_Imagy_Tage.part3.rar