Video2Brain - Quick Fixes in Photoshop Elements (2012)



Video2Brain - Quick Fixes in Photoshop Elements (2012)
Format : MPEG-4
Format profile : Base Media / Version 2
Codec ID : mp42
File size : 10.2 MiB
Duration : 4mn 56s
Overall bit rate : 290 Kbps
Encoded date : UTC 2011-12-19 13:49:46
Tagged date : UTC 2011-12-19 13:49:46
Writing library : Apple QuickTime
Video #1
ID : 1
Format : AVC
Format/Info : Advanced Video Codec
Format profile : Baseline@L3.1
Format settings, CABAC : No
Format settings, ReFrames : 3 frames
Codec ID : avc1
Codec ID/Info : Advanced Video Coding
Duration : 4mn 56s
Bit rate mode : Variable
Bit rate : 224 Kbps
Width : 1 280 pixels
Height : 720 pixels
Display aspect ratio : 16:9
Frame rate mode : Constant
Frame rate : 15.000 fps
Standard : Component
Resolution : 24 bits
Colorimetry : 4:2:0
Scan type : Progressive
Bits/(Pixel*Frame) : 0.016
Stream size : 7.90 MiB (77%)
Encoded date : UTC 2011-12-19 13:49:46
Tagged date : UTC 2011-12-19 13:49:46
Audio #2
ID : 2
Format : AAC
Format/Info : Advanced Audio Codec
Format version : Version 4
Format profile : LC
Format settings, SBR : No
Format settings, PS : Yes
Codec ID : 40
Duration : 4mn 56s
Bit rate mode : Variable
Bit rate : 64.0 Kbps
Maximum bit rate : 67.7 Kbps
Channel(s) : 2 channels
Channel positions : Front: L R
Sampling rate : 44.1 KHz
Resolution : 16 bits
Stream size : 2.26 MiB (22%)
Encoded date : UTC 2011-12-19 13:49:46
Tagged date : UTC 2011-12-19 13:49:46
No mirrors please

Quick Fixes in Photoshop Elements_2012.part1.rar
Quick Fixes in Photoshop Elements_2012.part2.rar
Quick Fixes in Photoshop Elements_2012.part3.rar
Quick Fixes in Photoshop Elements_2012.part4.rar