Modeling a Greek Temple in Blender (2012)



Modeling a Greek Temple in Blender (2012)
In this two-part video tutorial you will learn how to create a Greek temple in Blender 2.6. Ben will show you how to model this temple with smart techniques that make for very fast modeling, quicker and more efficient rendering and great results.
Hello and welcome to this Blender modeling tutorial by Ben Simonds!
In this two-part video tutorial you will learn how to create a Greek temple in Blender 2.6. Ben will show you how to model this temple with smart techniques that make for very fast modeling, quicker and more efficient rendering and great results.
Modeling a Greek Temple in Blender
What you’ll learn:
You will learn how to model the columns by starting with a curve circle and later converting it to a mesh.
After modeling the columns learn how to easily replicate the columns with DupliFaces, allowing Cycles to render them much faster.
Learn how to quickly replicate a single tile mesh for the roof to create the whole surface with variation in a matter of minutes.
Find out how to set up a simple lighting environment to render the scene in Cycles with a background sky
The techniques Ben shows in this tutorial can be applied to many, many other projects, enabling you to quickly created detailed structures with great variation in very little time.
General
Complete name : blender_modeling_temple_01.mp4
Format : MPEG-4
Format profile : Base Media
Codec ID : isom
File size : 219 MiB
Duration : 44mn 58s
Overall bit rate : 682 Kbps
Encoded date : UTC 2012-08-01 09:39:22
Tagged date : UTC 2012-08-01 09:39:22
Writing application : Lavf53.32.100
Video #1
ID : 1
Format : AVC
Format/Info : Advanced Video Codec
Format profile : Baseline@L1.3
Format settings, CABAC : No
Format settings, ReFrames : 3 frames
Format settings, GOP : M=1, N=30
Codec ID : avc1
Codec ID/Info : Advanced Video Coding
Duration : 44mn 58s
Bit rate : 538 Kbps
Width : 1 280 pixels
Height : 720 pixels
Display aspect ratio : 16:9
Frame rate mode : Constant
Frame rate : 12.000 fps
Color space : YUV
Chroma subsampling : 4:2:0
Bit depth : 8 bits
Scan type : Progressive
Bits/(Pixel*Frame) : 0.049
Stream size : 177 MiB (81%)
Writing library : x264 core 120
Encoding settings : cabac=0 / ref=3 / deblock=1:0:0 / analyse=0x1:0x111 / me=hex / subme=7 / psy=1 / psy_rd=1.00:0.00 / mixed_ref=1 / me_range=16 / chroma_me=1 / trellis=1 / 8x8dct=0 / cqm=0 / deadzone=21,11 / fast_pskip=1 / chroma_qp_offset=-2 / threads=12 / sliced_threads=0 / nr=0 / decimate=1 / interlaced=0 / bluray_compat=0 / constrained_intra=0 / bframes=0 / weightp=0 / keyint=30 / keyint_min=16 / scenecut=40 / intra_refresh=0 / rc_lookahead=30 / rc=abr / mbtree=1 / bitrate=538 / ratetol=1.0 / qcomp=0.60 / qpmin=10 / qpmax=51 / qpstep=4 / ip_ratio=1.40 / aq=1:1.00
Language : English
Encoded date : UTC 2012-08-01 09:39:22
Tagged date : UTC 2012-08-01 09:39:22
Audio #2
ID : 2
Format : AAC
Format/Info : Advanced Audio Codec
Format profile : LC
Codec ID : 40
Duration : 44mn 58s
Bit rate mode : Constant
Bit rate : 128 Kbps
Channel(s) : 2 channels
Channel positions : Front: L R
Sampling rate : 44.1 KHz
Compression mode : Lossy
Stream size : 41.1 MiB (19%)
Language : English
Encoded date : UTC 2012-08-01 09:39:22
Tagged date : UTC 2012-08-01 09:39:22Screenshots
For more, Visit my
no mirrors please, Follow The Rules

http://cgcookie.com/blender/cgc-series/modeling-a-greek-temple-in-blender/
CG Cookie - Modeling a Greek Temple in Blender.part3.rar
CG Cookie - Modeling a Greek Temple in Blender.part4.rar
CG Cookie - Modeling a Greek Temple in Blender.part1.rar
CG Cookie - Modeling a Greek Temple in Blender.part2.rar