CodeSchool - javascript Roadtrip Part 1



CodeSchool - javascript Roadtrip Part 1
Format : MPEG-4
Format profile : Base Media
Codec ID : isom
File size : 67.8 MiB
Duration : 5mn 43s
Overall bit rate : 1 656 Kbps
Encoded date : UTC 2013-09-10 09:02:46
Tagged date : UTC 2013-09-10 09:02:46
Writing application : Lavf54.6.100
Video #1
ID : 1
Format : AVC
Format/Info : Advanced Video Codec
Format profile : Main@L3.1
Format settings, CABAC : Yes
Format settings, ReFrames : 4 frames
Codec ID : avc1
Codec ID/Info : Advanced Video Coding
Duration : 5mn 43s
Bit rate mode : Variable
Bit rate : 1 471 Kbps
Nominal bit rate : 1 500 Kbps
Width : 1 280 pixels
Height : 720 pixels
Display aspect ratio : 16:9
Frame rate mode : Variable
Frame rate : 29.970 fps
Minimum frame rate : 15.000 fps
Maximum frame rate : 30.000 fps
Resolution : 24 bits
Colorimetry : 4:2:0
Scan type : Progressive
Bits/(Pixel*Frame) : 0.053
Stream size : 60.2 MiB (89%)
Writing library : x264 core 118
Encoding settings : cabac=1 / ref=2 / deblock=1:0:0 / analyse=0x1:0x111 / me=umh / subme=8 / psy=1 / psy_rd=1.00:0.00 / mixed_ref=1 / me_range=16 / chroma_me=1 / trellis=1 / 8x8dct=0 / cqm=0 / deadzone=21,11 / fast_pskip=1 / chroma_qp_offset=-2 / threads=12 / sliced_threads=0 / nr=0 / decimate=1 / interlaced=0 / bluray_compat=0 / constrained_intra=0 / bframes=3 / b_pyramid=2 / b_adapt=2 / b_bias=0 / direct=1 / weightb=1 / open_gop=0 / weightp=2 / keyint=30 / keyint_min=16 / scenecut=40 / intra_refresh=0 / rc_lookahead=30 / rc=abr / mbtree=1 / bitrate=1500 / ratetol=1.0 / qcomp=0.60 / qpmin=10 / qpmax=51 / qpstep=4 / ip_ratio=1.40 / aq=1:1.00 / cabac=1 / ref=2 / deblock=1:0:0 / analyse=0x1:0x111 / me=umh / subme=8 / psy=1 / psy_rd=1.00:0.00 / mixed_ref=1 / me_range=16 / chroma_me=1 / trellis=1 / 8x8dct=0 / cqm=0 / deadzone=21,11 / fast_pskip=1 / chroma_qp_offset=-2 / threads=12 / sliced_threads=0 / nr=0 / decimate=1 / interlaced=0 / bluray_compat=0 / constrained_intra=0 / bframes=3 / b_pyramid=2 / b_adapt=2 / b_bias=0 / direct=1 / weightb=1 / open_gop=0 / weightp=2 / keyint=30 / keyint_min=16 / scenecut=40 / intra_refresh=0 / rc_lookahead=30 / rc=abr / mbtree=1 / bitrate=1500 / ratetol=1.0 / qcomp=0.60 / qpmin=10 / qpmax=51 / qpstep=4 / ip_ratio=1.40 / aq=1:1.00
Language : English
Encoded date : UTC 2013-09-10 09:02:46
Tagged date : UTC 2013-09-10 10:35:46
Audio #2
ID : 2
Format : AAC
Format/Info : Advanced Audio Codec
Format version : Version 4
Format profile : LC
Format settings, SBR : No
Codec ID : 40
Duration : 5mn 43s
Bit rate mode : Variable
Bit rate : 102 Kbps
Maximum bit rate : 128 Kbps
Channel(s) : 2 channels
Channel positions : L R
Sampling rate : 48.0 KHz
Resolution : 16 bits
Stream size : 4.18 MiB (6%)
Language : English
Encoded date : UTC 2013-09-10 09:02:46
Tagged date : UTC 2013-09-10 10:35:46
1.1.Booleans, The True Path.mp4
1.7.Strings on Signs.mp4
2.1 Variable Discovery.mp4
2.4 Variable Exploration.mp4
3.1 Script Tags.mp4
3.4 Down to the Files.mp4
http://avaxhome.cc/ebooks/programming_development/html_css_js_javascript/CodeSchooljavascriptRoadtripPart2.html
http://avaxhome.cc/ebooks/programming_development/html_css_js_javascript/CodeSchooljavascriptRoadtripPart3.html
No mirrors please

javascript-roadtrip-part1.part1.rar
javascript-roadtrip-part1.part2.rar
javascript-roadtrip-part1.part3.rar