Start with a Theme Video Blogs in WordPress (2013)



Start with a Theme Video Blogs in WordPress (2013)
Format : QuickTime
Format/Info : Original Apple specifications
File size : 12.8 MiB
Duration : 4mn 50s
Overall bit rate : 371 Kbps
Encoded date : UTC 2013-01-30 23:48:26
Tagged date : UTC 2013-01-30 23:48:26
Writing library : Apple QuickTime
Copyright : lynda.com
Video #2
ID : 2
Format : AVC
Format/Info : Advanced Video Codec
Format profile : Main@L3.1
Format settings, CABAC : Yes
Format settings, ReFrames : 3 frames
Codec ID : avc1
Codec ID/Info : Advanced Video Coding
Duration : 4mn 50s
Bit rate mode : Variable
Bit rate : 240 Kbps
Width : 960 pixels
Height : 540 pixels
Display aspect ratio : 16:9
Frame rate mode : Constant
Frame rate : 15.000 fps
Resolution : 24 bits
Colorimetry : 4:2:0
Scan type : Progressive
Bits/(Pixel*Frame) : 0.031
Stream size : 8.31 MiB (65%)
Encoded date : UTC 2013-01-30 23:48:26
Tagged date : UTC 2013-01-30 23:48:26
Audio #1
ID : 1
Format : AAC
Format/Info : Advanced Audio Codec
Format version : Version 4
Format profile : LC
Format settings, SBR : No
Format settings, PS : Yes
Codec ID : 40
Duration : 4mn 50s
Bit rate mode : Variable
Bit rate : 128 Kbps
Maximum bit rate : 131 Kbps
Channel(s) : 2 channels
Channel positions : Front: L R
Sampling rate : 48.0 KHz
Resolution : 16 bits
Stream size : 4.43 MiB (35%)
Encoded date : UTC 2013-01-30 23:48:26
Tagged date : UTC 2013-01-30 23:48:26
No mirrors please

Start_Them_Video_Blog_WordPre.part1.rar
Start_Them_Video_Blog_WordPre.part2.rar