Screencasts - Learning ExpressionEngine by Ryan Irelan



Screencasts - Learning ExpressionEngine by Ryan Irelan
It's basic training for ExpressionEngine. In more than 4 hours of HD video, this 8 episode series shows how to build a website, from beginning to end, in ExpressionEngine 2. If you're new to ExpressionEngine and are looking for that 'lightbulb moment', this series is for you.
The videos are even used by EllisLab, the company behind ExpressionEngine, to train their own new employees. Read on to find out what they cover.
Follow along as we build the 'Channel University' website on ExpressionEngine 2. We'll start from the very beginning of configuring ExpressionEngine and work all the way through until we have a basic, working website. The site will have an RSS feed, search functionality, commenting, a contact form, static pages and more. This series of videos will get you up and running quickly and put you on the right path to becoming an ExpressionEngine pro.
Episode Listing
Episode 1 Configuring the Site (39 min)
In this episode we get started setting up the site in ExpressionEngine 2. We learn the basics of ExpressionEngine tags, create template groups and templates, create custom field groups and custom fields and custom statuses. We put all of this together to bring the homepage of the Channel University site to life.
Episode 2 Enabling Comments and using Embed Templates (36 min)
We continue building the site by learning how to create an entry view template. We implement commenting on entries with a comment form and learn about embed templates and embed variables to help us make our templates learner and reusable across the site.
Episode 3 Creating and Using Categories (34 min)
In this episode we learn about using categories in ExpressionEngine 2. We create category groups and categories, use categories to display related entries and use conditionals to check whether there is any content to display.
Episode 4 Static Pages and the File Manager (40 min)
We start off by learning how to create cleaners URLs by re moving the index.php. Continuing to build out the site, we configure and use the Pages module to create static pages. We also set up the File Manager for image uploading and editing and add images to our channel entries.
Episode 5 Creating a Contact Form and RSS Feed (22 min)
To make our site easier to navigate, we light up the main navigation. We also learn how to create an RSS feed to syndicate our site content. Finally, we create a contact form using the Email module.
Episode 6 Creating Relationships Between Entries (20 min)
In this episode we learn about creating relationship between entries using the Relationship field available in ExpressionEngine. We set up a relationships field, assign related entries and then display them using the Reverse Related Entries tag pair.
Episode 7 Adding Content Outside of the Control Panel (25 min)
We learn how to use the SafeCracker module in ExpressionEngine 2 and allow registered members to submit channel entries from outside of the Control Panel. We also learn the basics of membership in ExpressionEngine 2, including the default member registration and login pages.
Episode 8 Enabling Search and Search Results (21 min)
To wrap up the series, we add search functionality to our site using the Search module in ExpressionEngine 2. We implement a Simple Search Form, search results page and an Advanced Search Form. Additionally, we learn how to use the auto_path variable to allow us to simply link up search results from different channels.
General
Complete name : episode-01.mov
Format : MPEG-4
Format profile : QuickTime
Codec ID : qt
File size : 109 MiB
Duration : 40mn 24s
Overall bit rate : 377 Kbps
Encoded date : UTC 2010-08-10 03:24:14
Tagged date : UTC 2010-08-10 03:24:28
Writing library : Apple QuickTime
com.apple.quicktime.software : ScreenFlow
Video #2
ID : 2
Format : AVC
Format/Info : Advanced Video Codec
Format profile : Main@L3.1
Format settings, CABAC : No
Format settings, ReFrames : 2 frames
Codec ID : avc1
Codec ID/Info : Advanced Video Coding
Duration : 40mn 24s
Source duration : 40mn 24s
Bit rate : 306 Kbps
Width : 1 000 pixels
Height : 600 pixels
Display aspect ratio : 1.667
Frame rate mode : Constant
Frame rate : 25.000 fps
Color space : YUV
Chroma subsampling : 4:2:0
Bit depth : 8 bits
Scan type : Progressive
Bits/(Pixel*Frame) : 0.020
Stream size : 88.6 MiB (81%)
Source stream size : 88.6 MiB (81%)
Language : English
Encoded date : UTC 2010-08-10 03:11:23
Tagged date : UTC 2010-08-10 03:24:28
Color primaries : BT.709-5, BT.1361, IEC 61966-2-4, SMPTE RP177
Transfer characteristics : BT.709-5, BT.1361
Matrix coefficients : BT.709-5, BT.1361, IEC 61966-2-4 709, SMPTE RP177
Audio #1
ID : 1
Format : AAC
Format/Info : Advanced Audio Codec
Format profile : LC
Codec ID : 40
Duration : 40mn 24s
Source duration : 40mn 24s
Bit rate mode : Constant
Bit rate : 64.0 Kbps
Channel(s) : 1 channel
Channel positions : Front: C
Sampling rate : 44.1 KHz
Compression mode : Lossy
Stream size : 18.8 MiB (17%)
Source stream size : 18.8 MiB (17%)
Language : English
Encoded date : UTC 2010-08-10 03:11:23
Tagged date : UTC 2010-08-10 03:24:28Screenshots
For more, Visit my
no mirrors please, Follow The Rules

http://mijingo.com/products/screencasts/learning-expressionengine-2-complete-series/
Learning.Expression.Engine.2.part1.rar
Learning.Expression.Engine.2.part2.rar
Learning.Expression.Engine.2.part3.rar