Video2Brain - Photoshop Image Cleanup Workshop



Video2Brain - Photoshop Image Cleanup Workshop
Format : MPEG-4
Format profile : Base Media / Version 2
Codec ID : mp42
File size : 14.0 MiB
Duration : 9mn 56s
Overall bit rate : 197 Kbps
Encoded date : UTC 2011-04-04 14:04:12
Tagged date : UTC 2011-04-04 14:04:12
Writing library : Apple QuickTime
Video #1
ID : 1
Format : AVC
Format/Info : Advanced Video Codec
Format profile : Baseline@L3.1
Format settings, CABAC : No
Format settings, ReFrames : 3 frames
Codec ID : avc1
Codec ID/Info : Advanced Video Coding
Duration : 9mn 56s
Bit rate mode : Variable
Bit rate : 131 Kbps
Width : 1 280 pixels
Height : 720 pixels
Display aspect ratio : 16:9
Frame rate mode : Constant
Frame rate : 15.000 fps
Standard : Component
Resolution : 24 bits
Colorimetry : 4:2:0
Scan type : Progressive
Bits/(Pixel*Frame) : 0.009
Stream size : 9.29 MiB (66%)
Encoded date : UTC 2011-04-04 14:04:12
Tagged date : UTC 2011-04-04 14:04:12
Audio #2
ID : 2
Format : AAC
Format/Info : Advanced Audio Codec
Format version : Version 4
Format profile : LC
Format settings, SBR : No
Format settings, PS : Yes
Codec ID : 40
Duration : 9mn 56s
Bit rate mode : Variable
Bit rate : 64.0 Kbps
Maximum bit rate : 67.8 Kbps
Channel(s) : 2 channels
Channel positions : Front: L R
Sampling rate : 44.1 KHz
Resolution : 16 bits
Stream size : 4.55 MiB (33%)
Encoded date : UTC 2011-04-04 14:04:12
Tagged date : UTC 2011-04-04 14:04:12
No mirrors please

Photoshop_Image_Cleanup_Workshop.rar