Relief Carving in a Different Light with David Bennett (1991)



Relief Carving in a Different Light with David Bennett (1991)
Genre: Woodworking
This 85 minute DVD by master carver David Bennett reveals his secrets to successful relief carving. With step-by-step instructions, David leads you through an actual carving project, showing his techniques and the visual concepts that make them work.
General
Complete name : Relief Carving in a Different Light by David Bennett.avi
Format : AVI
Format/Info : Audio Video Interleave
File size : 664 MiB
Duration : 1h 25mn
Overall bit rate : 1 089 Kbps
Writing application : Nandub v1.0rc2
Writing library : Nandub build 1852/release
Video
ID : 0
Format : MPEG-4 Visual
Format profile : Advanced Simple@L5
Format settings, BVOP : 2
Format settings, QPel : No
Format settings, GMC : No warppoints
Format settings, Matrix : Default (H.263)
Muxing mode : Packed bitstream
Codec ID : XVID
Codec ID/Hint : XviD
Duration : 1h 25mn
Bit rate : 949 Kbps
Width : 640 pixels
Height : 480 pixels
Display aspect ratio : 4:3
Frame rate : 23.976 fps
Color space : YUV
Chroma subsampling : 4:2:0
Bit depth : 8 bits
Scan type : Progressive
Compression mode : Lossy
Bits/(Pixel*Frame) : 0.129
Stream size : 579 MiB (87%)
Writing library : XviD 1.0.3 (UTC 2004-12-20)
Audio
ID : 1
Format : MPEG Audio
Format version : Version 1
Format profile : Layer 3
Mode : Joint stereo
Mode extension : MS Stereo
Codec ID : 55
Codec ID/Hint : MP3
Duration : 1h 25mn
Bit rate mode : Constant
Bit rate : 128 Kbps
Channel(s) : 2 channels
Sampling rate : 48.0 KHz
Compression mode : Lossy
Stream size : 78.1 MiB (12%)
Alignment : Aligned on interleaves
Interleave, duration : 24 ms (0.58 video frame)
Interleave, preload duration : 480 ms
Screenshots
no mirrors please, Follow The Rules
no password

Relief Carving in a Different Light by David Bennett.part3.rar
Relief Carving in a Different Light by David Bennett.part2.rar
Relief Carving in a Different Light by David Bennett.part1.rar