First Steps in Woodturning with Chris Stott



First Steps in Woodturning with Chris Stott
Genre: Wood turning
This video takes the beginner through the selection and use of basic woodturning tools as well as the tool movement required to make simple projects. This video is the best alternative to actually being able to take a class from Chris Stott.
General
Complete name : First Steps in Woodturning with Chris Stott.mov
Format : MPEG-4
Format profile : QuickTime
Codec ID : qt
File size : 1.61 GiB
Duration : 1h 22mn
Overall bit rate mode : Variable
Overall bit rate : 2 788 Kbps
Encoded date : UTC 2009-10-20 17:43:00
Tagged date : UTC 2009-10-20 17:43:54
Writing application : Lavf52.37.0
Writing library : Apple QuickTime 7.6.3
Video
ID : 1
Format : MPEG-4 Visual
Format profile : Simple@L1
Format settings, BVOP : No
Format settings, QPel : No
Format settings, GMC : No warppoints
Format settings, Matrix : Default (H.263)
Codec ID : 20
Duration : 1h 22mn
Source duration : 1h 22mn
Bit rate : 2 653 Kbps
Width : 480 pixels
Height : 320 pixels
Display aspect ratio : 3:2
Frame rate mode : Constant
Frame rate : 25.000 fps
Color space : YUV
Chroma subsampling : 4:2:0
Bit depth : 8 bits
Scan type : Progressive
Compression mode : Lossy
Bits/(Pixel*Frame) : 0.691
Stream size : 1.53 GiB (95%)
Source stream size : 1.53 GiB (95%)
Writing library : Lavc52.32.0
Tagged date : UTC 2009-10-20 17:43:54
Audio
ID : 2
Format : AAC
Format/Info : Advanced Audio Codec
Format profile : LC
Codec ID : 40
Duration : 1h 22mn
Source duration : 1h 22mn
Bit rate mode : Variable
Bit rate : 132 Kbps
Channel(s) : 2 channels
Channel positions : Front: L R
Sampling rate : 48.0 KHz
Compression mode : Lossy
Stream size : 77.2 MiB (5%)
Source stream size : 77.2 MiB (5%)
Tagged date : UTC 2009-10-20 17:43:54
Screenshots
no mirrors please, Follow The Rules
no password

First Steps in Woodturning with Chris Stott.part5.rar
First Steps in Woodturning with Chris Stott.part6.rar
First Steps in Woodturning with Chris Stott.part4.rar
First Steps in Woodturning with Chris Stott.part3.rar
First Steps in Woodturning with Chris Stott.part1.rar
First Steps in Woodturning with Chris Stott.part2.rar