Infinite Skills - Advanced Revit Structure 2014 Training Video



Infinite Skills - Advanced Revit Structure 2014 Training Video
Genre: Video Training
In this Advanced Revit Structure 2014 training course, expert Shaun Bryant takes you beyond the basics with Revit Structure. Shaun teaches you advanced tools and techniques in this tutorial, giving you a wider range of skills to apply to your designs. To get the most from this video training, you should have a working understanding of Revit Structure, or have already taken the Learning Revit Structure 2014 training course from Infinite Skills.
Shaun starts the training with a quick run thorough of setting up your interface. He then jumps right into the advanced training with a look at Revit Families concepts and techniques. Other topics that Shaun covers include; creating a parametric framework, custom Families, creating trusses, performing a structural analysis, viewing analytical models, work sharing and collaboration and much more!
Once you have completed this advanced Revit Structure 2014 video training course, you will have a deep understanding of the advanced features available to you in this BIM software from Autodesk. Working files are included, allowing you to follow along with the author throughout the lessons.
01. Introduction
02. Setting Up The Interface
03. Family Concepts And Techniques
04. Creating A Parametric Framework
05. Additional Family Tools
06. Custom Families
07. Creating Trusses
08. Structural Analysis
09. Viewing Analytical Models
10. Collaboration On Projects
11. Working In Workset Projects
12. Visibility And Display Options For Worksharing
13. Worksharing And Linked Models
14. Setting Up Worksets
15. Workset Best Practices
16. Close
17. Credits
General
Complete name : Advanced Revit Structure 2014 101.mp4
Format : MPEG-4
Format profile : Base Media / Version 2
Codec ID : mp42
File size : 2.57 MiB
Duration : 1mn 14s
Overall bit rate : 289 Kbps
Encoded date : UTC 2013-07-05 04:09:27
Tagged date : UTC 2013-07-05 03:09:27
Writing application : Sorenson Squeeze
Comment : Encoded by
Video
ID : 2
Format : AVC
Format/Info : Advanced Video Codec
Format settings, CABAC : Yes
Format settings, ReFrames : 4 frames
Codec ID : avc1
Codec ID/Info : Advanced Video Coding
Duration : 1mn 14s
Bit rate mode : Variable
Bit rate : 225 Kbps
Width : 1 280 pixels
Height : 720 pixels
Display aspect ratio : 16:9
Frame rate mode : Constant
Frame rate : 15.000 fps
Color space : YUV
Chroma subsampling : 4:2:0
Bit depth : 8 bits
Scan type : Progressive
Bits/(Pixel*Frame) : 0.016
Stream size : 1.95 MiB (76%)
Writing library : x264 core 129
Encoding settings : cabac=1 / ref=3 / deblock=1:0:0 / analyse=0x1:0x111 / me=hex / subme=7 / psy=1 / psy_rd=1.00:0.00 / mixed_ref=1 / me_range=16 / chroma_me=1 / trellis=1 / 8x8dct=0 / cqm=0 / deadzone=21,11 / fast_pskip=1 / chroma_qp_offset=-2 / threads=24 / lookahead_threads=4 / sliced_threads=0 / nr=0 / decimate=1 / interlaced=0 / bluray_compat=0 / constrained_intra=0 / bframes=3 / b_pyramid=2 / b_adapt=1 / b_bias=0 / direct=1 / weightb=1 / open_gop=0 / weightp=2 / keyint=150 / keyint_min=15 / scenecut=50 / intra_refresh=0 / rc_lookahead=40 / rc=2pass / mbtree=1 / bitrate=225 / ratetol=100.0 / qcomp=0.60 / qpmin=0 / qpmax=69 / qpstep=4 / cplxblur=20.0 / qblur=0.5 / ip_ratio=1.40 / aq=1:1.00
Encoded date : UTC 2013-07-05 04:09:27
Tagged date : UTC 2013-07-05 04:09:27
Audio
ID : 1
Format : AAC
Format/Info : Advanced Audio Codec
Format profile : LC
Codec ID : 40
Duration : 1mn 14s
Bit rate mode : Constant
Bit rate : 64.0 Kbps
Channel(s) : 1 channel
Channel positions : Front: C
Sampling rate : 44.1 KHz
Compression mode : Lossy
Stream size : 582 KiB (22%)
Encoded date : UTC 2013-07-05 04:09:27
Tagged date : UTC 2013-07-05 04:09:27
Screenshots
no mirrors please, Follow The Rules
no password

[email protected]
Advanced Revit Structure 2014.part3.rar
Advanced Revit Structure 2014.part4.rar
Advanced Revit Structure 2014.part2.rar
Advanced Revit Structure 2014.part1.rar