Udemy - Photo Gallery with PHP, MySQL, ImageMagick and jQuery (2013)



Udemy - Photo Gallery with PHP, MySQL, ImageMagick and jQuery (2013)
Format : MPEG-4
Format profile : Base Media
Codec ID : isom
File size : 15.8 MiB
Duration : 6mn 58s
Overall bit rate : 316 Kbps
Encoded date : UTC 2013-08-31 18:58:56
Tagged date : UTC 2013-08-31 18:58:56
Video #1
ID : 1
Format : AVC
Format/Info : Advanced Video Codec
Format profile : Baseline@L3.1
Format settings, CABAC : No
Format settings, ReFrames : 3 frames
Codec ID : avc1
Codec ID/Info : Advanced Video Coding
Duration : 6mn 58s
Bit rate mode : Variable
Bit rate : 270 Kbps
Maximum bit rate : 1 890 Kbps
Width : 800 pixels
Height : 600 pixels
Display aspect ratio : 4:3
Frame rate mode : Constant
Frame rate : 8.000 fps
Resolution : 24 bits
Colorimetry : 4:2:0
Scan type : Progressive
Bits/(Pixel*Frame) : 0.070
Stream size : 13.5 MiB (85%)
Writing library : Zencoder Video Encoding System
Encoded date : UTC 2013-08-31 18:58:47
Tagged date : UTC 2013-08-31 18:58:56
Audio #2
ID : 2
Format : AAC
Format/Info : Advanced Audio Codec
Format version : Version 4
Format profile : LC
Format settings, SBR : No
Format settings, PS : Yes
Codec ID : 40
Duration : 6mn 50s
Bit rate mode : Variable
Bit rate : 44.9 Kbps
Maximum bit rate : 52.2 Kbps
Channel(s) : 2 channels
Channel positions : Front: L R
Sampling rate : 44.1 KHz
Resolution : 16 bits
Stream size : 2.20 MiB (14%)
Encoded date : UTC 2013-08-31 18:58:56
Tagged date : UTC 2013-08-31 18:58:56
No mirrors please

Phote_Gallery_PHP_MySQL_Imagi_jQuery.part1.rar
Phote_Gallery_PHP_MySQL_Imagi_jQuery.part2.rar
Phote_Gallery_PHP_MySQL_Imagi_jQuery.part3.rar