Model Rail - Airbrush Expert (2005)



Model Rail - Airbrush Expert (2005)
Genre: Video Training
There are few aspects of model making that are surrounded by more myth and mystery than the art of air brushing. Old fashioned brush painting methods can never match up to the superb ‘scale appearance', even finish achieved by spray painting with an air brush. Yet, dozens of modellers are still deterred from trying. Perhaps it's the cost of setting up or the risk of making a mess of your first model. Now YOU can do it… In the first of Model Rail's EXPERT series of special video programmes, Darren Sherwood takes you through everything you need to know about air brushing – from choosing the right equipment, to paint mixing, spraying techniques, cleaning and care, to weathering. Learn with an expert ? With support from air brush makers, Revell and paint manufacturers Phoenix Precision and Railmatch, Darren demonstrates how to prepare your models and apply the paint and masking for a really professional finish. ? Air Brush Expert Is the essential workshop guide for every model maker.
General
Complete name : Model Rail - Airbrush Expert.avi
Format : AVI
Format/Info : Audio Video Interleave
File size : 556 MiB
Duration : 51mn 58s
Overall bit rate : 1 496 Kbps
Writing library : VirtualDub build 18014/release
Video
ID : 0
Format : MPEG-4 Visual
Format settings, BVOP : Yes
Format settings, QPel : No
Format settings, GMC : No warppoints
Format settings, Matrix : Default (H.263)
Codec ID : DX50
Codec ID/Hint : DivX 5
Duration : 51mn 58s
Bit rate : 1 391 Kbps
Width : 400 pixels
Height : 320 pixels
Display aspect ratio : 5:4
Frame rate : 25.000 fps
Color space : YUV
Chroma subsampling : 4:2:0
Bit depth : 8 bits
Scan type : Progressive
Compression mode : Lossy
Bits/(Pixel*Frame) : 0.435
Stream size : 517 MiB (93%)
Writing library : DivX 5.0.2 (UTC 2002-05-16)
Audio
ID : 1
Format : MPEG Audio
Format version : Version 1
Format profile : Layer 3
Mode : Joint stereo
Mode extension : Intensity Stereo + MS Stereo
Codec ID : 55
Codec ID/Hint : MP3
Duration : 51mn 58s
Bit rate mode : Constant
Bit rate : 96.0 Kbps
Channel(s) : 2 channels
Sampling rate : 44.1 KHz
Compression mode : Lossy
Delay relative to video : 17ms
Stream size : 35.6 MiB (6%)
Alignment : Split accross interleaves
Interleave, duration : 40 ms (1.00 video frame)
Interleave, preload duration : 500 ms
Screenshots
no mirrors please, Follow The Rules
no password

Model Rail - Airbrush Expert.part1.rar
Model Rail - Airbrush Expert.part2.rar