UI Elements in Photoshop



UI Elements in Photoshop
Are you finding it hard to get to grips with UI Design, then do not fear as Ryan is here to teach us how to create some great graphic elements for the web in Photoshop. You will learn how to create classy buttons, ribbons, multimedia elements and much much more! Come and join Ryan and take your UI designs to a whole new level.
Contents:
Introduction 6m 50s
Welcome 2m 4s
What is Usability 1m 20s
The Seven Stages of Action 3m 26s
Application Elements 1h 31m 16s
Modal Windows 21m 2s
Buttons 18m 36s
Tabs 16m
Tuttons (Tabbed Buttons) 6m 50s
Toolbars 18m 12s
Scrollbars 10m 36s
Attention Elements 48m 48s
Banners 7m 52s
Badges 11m 40s
Flags and Ribbons 17m 34s
Error Messages & Tooltips 11m 42s
Data Elements 43m 16s
Tables 10m 48s
Form fields 9m 56s
Breadcrumbs 8m 56s
Tags 13m 36s
Multimedia Elements 54m 22s
Media Controls 9m 10s
Slideshow Controls 2m 50s
Location Markers 14m 26s
Thumbnails 12m 38s
Comments 15m 18s
Conclusion 1m 32s
Goodbye 1m 32s
Quiz
General
Complete name : 09-scrollbars.mov
Format : MPEG-4
Format profile : QuickTime
Codec ID : qt
File size : 46.5 MiB
Duration : 10mn 18s
Overall bit rate : 632 Kbps
Encoded date : UTC 2013-01-22 04:42:40
Tagged date : UTC 2013-01-22 04:42:41
Writing library : Apple QuickTime
Video #2
ID : 2
Format : AVC
Format/Info : Advanced Video Codec
Format profile : Main@L3.1
Format settings, CABAC : No
Format settings, ReFrames : 2 frames
Codec ID : avc1
Codec ID/Info : Advanced Video Coding
Duration : 10mn 18s
Bit rate : 529 Kbps
Width : 1 280 pixels
Height : 720 pixels
Display aspect ratio : 16:9
Frame rate mode : Constant
Frame rate : 24.000 fps
Color space : YUV
Chroma subsampling : 4:2:0
Bit depth : 8 bits
Scan type : Progressive
Bits/(Pixel*Frame) : 0.024
Stream size : 39.0 MiB (84%)
Language : English
Encoded date : UTC 2013-01-22 04:42:22
Tagged date : UTC 2013-01-22 04:42:41
Material_Duration : 618167
Material_StreamSize : 40857672
Material_FrameCount : 14836
Color primaries : BT.709-5, BT.1361, IEC 61966-2-4, SMPTE RP177
Transfer characteristics : BT.709-5, BT.1361
Matrix coefficients : BT.709-5, BT.1361, IEC 61966-2-4 709, SMPTE RP177
Audio #1
ID : 1
Format : AAC
Format/Info : Advanced Audio Codec
Format profile : LC
Codec ID : 40
Duration : 10mn 18s
Bit rate mode : Constant
Bit rate : 96.0 Kbps
Nominal bit rate : 128 Kbps
Channel(s) : 2 channels
Channel positions : Front: L R
Sampling rate : 44.1 KHz
Compression mode : Lossy
Stream size : 7.21 MiB (15%)
Language : English
Encoded date : UTC 2013-01-22 04:42:22
Tagged date : UTC 2013-01-22 04:42:41
Material_Duration : 618138
Material_StreamSize : 7563466Screenshots
For more, Visit my
no mirrors please, Follow The Rules

UI Elements in Photoshop.part3.rar
UI Elements in Photoshop.part4.rar
UI Elements in Photoshop.part1.rar
UI Elements in Photoshop.part2.rar