Groove3: Ear Training Explained - Intervals (2013)



Groove3: Ear Training Explained - Intervals (2013)
Have you ever heard a song or a riff and had a hard time remembering how it went later? Do you wish you could easily pick out the notes in a instrument solo or a vocal passage? Well, Doug Zangar is back with an amazing title that will enable you to do all of these things and more.
Doug begins with the basics of interval training or 'Ear Training' and shows you how to name intervals and scales. Then he focuses on the important interval foundations such as Unison, Minor & Major 2nds, Minor & Major 3rds, Perfect 4ths and 5ths, Tritones, Minor & Major 6ths and Minor & Major 7ths.
Doug also includes tests to help sink in the intervals and teach you how to recognize them easily. He then explains Octaves and Inversions and ends with 2 more in-depth tests covering all the intervals melodically and harmonically.
If you're serious about your music and want to be a better producer, mixer or engineer, being able to easily recognize intervals is an invaluable ability that you'll find yourself using all the time. Learn to really know what you're hearing... Get 'Ear Training Explained' today.
Content:
01. Naming Intervals Pt. 1 05m:57s
02. Naming Intervals Pt. 2 08m:14s
03. Unisons 03m:48s
04. Minor 2nds 05m:14s
05. Major 2nds 06m:45s
06. Test: Unisons & 2nds 08m:13s
07. Minor 3rds 06m:15s
08. Major 3rds 05m:55s
09. Test: Major & Minor 3rds 07m:47s
10. Test: Unison through 3rds 07m:50s
11. Perfect 4ths 06m:35s
12. Tritones 07m:51s
13. Perfect 5ths 08m:03s
14. Test: P4ths, Tritones & P5ths 11m:22s
15. Test: Unisons through P5ths 10m:46s
16. Minor 6ths 06m:13s
17. Major 6ths 05m:41s
18. Test: Major & Minor 6ths 06m:19s
19. Test: Unisons through 6ths 12m:06s
20. Minor 7ths 05m:28s
21. Major 7ths 06m:03s
22. Test: Major & Minor 7ths 05m:59s
23. Octaves & Inversions 07m:41s
24. Test: All Intervals Melodically 10m:59s
25. Test: All Intervals Harmonically 07m:08s
General
Complete name : 02NamingIntervals2_HD.mp4
Format : MPEG-4
Format profile : Base Media / Version 2
Codec ID : mp42
File size : 19.9 MiB
Duration : 8mn 14s
Overall bit rate mode : Variable
Overall bit rate : 338 Kbps
Encoded date : UTC 2013-01-24 10:32:54
Tagged date : UTC 2013-01-24 10:33:48
Writing application : HandBrake 0.9.8 2012071700
Video #1
ID : 1
Format : AVC
Format/Info : Advanced Video Codec
Format profile : Main@L3.1
Format settings, CABAC : Yes
Format settings, ReFrames : 4 frames
Codec ID : avc1
Codec ID/Info : Advanced Video Coding
Duration : 8mn 14s
Bit rate mode : Variable
Bit rate : 206 Kbps
Nominal bit rate : 258 Kbps
Width : 1 024 pixels
Height : 768 pixels
Display aspect ratio : 4:3
Frame rate mode : Constant
Frame rate : 30.000 fps
Color space : YUV
Chroma subsampling : 4:2:0
Bit depth : 8 bits
Scan type : Progressive
Bits/(Pixel*Frame) : 0.009
Stream size : 12.1 MiB (61%)
Writing library : x264 core 120
Encoding settings : cabac=1 / ref=2 / deblock=1:0:0 / analyse=0x1:0x111 / me=hex / subme=6 / psy=1 / psy_rd=1.00:0.00 / mixed_ref=0 / me_range=16 / chroma_me=1 / trellis=0 / 8x8dct=0 / cqm=0 / deadzone=21,11 / fast_pskip=1 / chroma_qp_offset=-2 / threads=12 / sliced_threads=0 / nr=0 / decimate=1 / interlaced=0 / bluray_compat=0 / constrained_intra=0 / bframes=2 / b_pyramid=2 / b_adapt=1 / b_bias=0 / direct=1 / weightb=0 / open_gop=0 / weightp=2 / keyint=300 / keyint_min=30 / scenecut=40 / intra_refresh=0 / rc_lookahead=40 / rc=2pass / mbtree=1 / bitrate=258 / ratetol=1.0 / qcomp=0.60 / qpmin=3 / qpmax=69 / qpstep=4 / cplxblur=20.0 / qblur=0.5 / ip_ratio=1.40 / aq=1:1.00
Encoded date : UTC 2013-01-24 10:32:54
Tagged date : UTC 2013-01-24 10:33:48
Color primaries : BT.709-5, BT.1361, IEC 61966-2-4, SMPTE RP177
Transfer characteristics : BT.709-5, BT.1361
Matrix coefficients : BT.709-5, BT.1361, IEC 61966-2-4 709, SMPTE RP177
Audio #2
ID : 2
Format : AAC
Format/Info : Advanced Audio Codec
Format profile : LC
Codec ID : 40
Duration : 8mn 14s
Bit rate mode : Variable
Bit rate : 127 Kbps
Maximum bit rate : 188 Kbps
Channel(s) : 2 channels
Channel positions : Front: L R
Sampling rate : 44.1 KHz
Compression mode : Lossy
Stream size : 7.50 MiB (38%)
Language : English
Encoded date : UTC 2013-01-24 10:32:54
Tagged date : UTC 2013-01-24 10:33:47Screenshots
For more, Visit my
no mirrors please, Follow The Rules

www.groove3.com/str/Ear-Training-Explained-Intervals.html
Groove3.Ear.Training.Explained.Intervals.part1.rar
Groove3.Ear.Training.Explained.Intervals.part2.rar