A Quick Studies: Oil Portrail from Life with Craig Nelson



A Quick Studies: Oil Portrail from Life with Craig Nelson
Craig Nelson uses his quick studies approach to develop a portrait of an in-studio model, in a logical manner, from a line drawing to a beautiful three dimensional portrait. Craig discusses and demonstrates: lighting; preparing the painting surface; developing a ghost drawing to a final drawing; color selections; blocking in skin tones and hair; subtle adjustments to achieve lifelike flesh; when not to refine your strokes; and delicate brush work for successful hair. Craig talks about all his decisions as he paints. You learn where to look for details and place touches of strong color and value that add energy to your portrait. Craig’s Quick Studies approach helps you gain confidence to paint larger, more refined portraits after many of the basic issues are resolved in the quick studies format.
General
Complete name : VTS_01_4.VOB
Format : MPEG-PS
File size : 707 MiB
Duration : 15mn 14s
Overall bit rate mode : Variable
Overall bit rate : 6 481 Kbps
Video #224
ID : 224 (0xE0)
Format : MPEG Video
Format version : Version 2
Format profile : Main@Main
Format settings, BVOP : Yes
Format settings, Matrix : Custom
Format settings, GOP : M=3, N=15
Duration : 15mn 14s
Bit rate mode : Variable
Bit rate : 6 160 Kbps
Maximum bit rate : 7 500 Kbps
Width : 720 pixels
Height : 480 pixels
Display aspect ratio : 4:3
Frame rate : 29.970 fps
Standard : NTSC
Color space : YUV
Chroma subsampling : 4:2:0
Bit depth : 8 bits
Scan type : Interlaced
Scan order : Bottom Field First
Compression mode : Lossy
Bits/(Pixel*Frame) : 0.595
Stream size : 672 MiB (95%)
Audio #189-128
ID : 189 (0xBD)-128 (0x80)
Format : AC-3
Format/Info : Audio Coding 3
Mode extension : CM (complete main)
Muxing mode : DVD-Video
Duration : 15mn 14s
Bit rate mode : Constant
Bit rate : 192 Kbps
Channel(s) : 2 channels
Channel positions : Front: L R
Sampling rate : 48.0 KHz
Bit depth : 16 bits
Compression mode : Lossy
Delay relative to video : -555ms
Stream size : 20.9 MiB (3%)Screenshots
For more, Visit my
no mirrors please, Follow The Rules

Nelson.portrait.part5.rar
Nelson.portrait.part6.rar
Nelson.portrait.part4.rar
Nelson.portrait.part3.rar
Nelson.portrait.part1.rar
Nelson.portrait.part2.rar