jQuery for Web Designers (2013)



jQuery for Web Designers (2013)
Introduction 2m 17s
Welcome 1m 4s
What you should know 37s
Using the exercise files 36s
1. Introducing jQuery 11m 59s
jQuery is a javascript library? 1m 15s
When to use jQuery 2m 51s
Alternatives to jQuery 1m 24s
Which version of jQuery to use 1m 50s
How to install jQuery 3m 21s
Reference materials 1m 18s
2. Essential jQuery Concepts 19m 19s
Getting ready 2m 26s
Selecting elements to use 3m 54s
Performing multiple operations on the same line with chaining 2m 30s
Using classes to find what you're looking for 3m 52s
Adding, modifying, and removing content dynamically 4m 3s
Challenge: Form feedback 1m 12s
Solution: Form feedback 1m 22s
3. It's Easier in jQuery 18m 28s
Triggering a change based on activity with event binding 4m 37s
Reading and changing values 4m 17s
Working with HTML attributes 4m 55s
Challenge: Dynamic contact form 1m 27s
Solution: Dynamic contact form 3m 12s
4. Integrating a Plugin 16m 42s
Using the Colorbox plugin to build a slideshow gallery 4m 22s
Implementing Colorbox on your site 2m 46s
Changing Colorbox options 5m 53s
Challenge: Convert to a slideshow 1m 6s
Solution: Convert to a slideshow 2m 35s
5. Objects in Motion 28m 37s
Using jQuery or CSS to animate elements 2m 24s
Creating simple jQuery animations 4m 35s
Animating numeric properties with animate() 4m 56s
Understanding animation easing 4m 4s
Putting it together: Flowers in the cart 6m 4s
Callbacks: What to do when the animation ends 3m 27s
Challenge: Improve the animation 1m 3s
Solution: Improve the animation 2m 4s
Conclusion 4m 45s
More fun plugins 2m 38s
What's next: More jQuery 50s
What's next: More javascript 1m 17s
Format : MPEG-4
Format profile : Base Media / Version 2
Codec ID : mp42
File size : 18.9 MiB
Duration : 5mn 53s
Overall bit rate : 450 Kbps
Encoded date : UTC 2013-10-29 18:09:23
Tagged date : UTC 2013-10-29 18:09:23
Writing library : Apple QuickTime
Copyright : lynda.com
Video #2
ID : 2
Format : AVC
Format/Info : Advanced Video Codec
Format settings, CABAC : Yes
Format settings, ReFrames : 3 frames
Codec ID : avc1
Codec ID/Info : Advanced Video Coding
Duration : 5mn 53s
Bit rate mode : Variable
Bit rate : 319 Kbps
Width : 960 pixels
Height : 540 pixels
Display aspect ratio : 16:9
Frame rate mode : Constant
Frame rate : 15.000 fps
Resolution : 24 bits
Colorimetry : 4:2:0
Scan type : Progressive
Bits/(Pixel*Frame) : 0.041
Stream size : 13.4 MiB (71%)
Encoded date : UTC 2013-10-29 18:09:23
Tagged date : UTC 2013-10-29 18:09:23
Audio #1
ID : 1
Format : AAC
Format/Info : Advanced Audio Codec
Format version : Version 4
Format profile : LC
Format settings, SBR : No
Format settings, PS : Yes
Codec ID : 40
Duration : 5mn 53s
Bit rate mode : Variable
Bit rate : 128 Kbps
Maximum bit rate : 131 Kbps
Channel(s) : 2 channels
Channel positions : Front: L R
Sampling rate : 48.0 KHz
Resolution : 16 bits
Stream size : 5.39 MiB (28%)
Encoded date : UTC 2013-10-29 18:09:23
Tagged date : UTC 2013-10-29 18:09:23
No mirrors please

[email protected]
jQueryy_Web_Designers.part1.rar
jQueryy_Web_Designers.part2.rar
jQueryy_Web_Designers.part3.rar