Create Your First Online Store with Drupal Commerce



Create Your First Online Store with Drupal Commerce
Topics include:
Surveying the store-building process
Installing Drupal Commerce using Commerce Kickstart
Accepting PayPal payments
Processing orders
Understanding rules and line items
Listing and importing products
Managing inventory, orders, and customer profiles
Streamlining the checkout process
Launching a store
Offering product discounts
Analyzing site traffic with Google Analytics
Format : QuickTime
Format/Info : Original Apple specifications
File size : 10.1 MiB
Duration : 4mn 58s
Overall bit rate : 284 Kbps
Encoded date : UTC 2011-11-14 23:25:05
Tagged date : UTC 2011-11-14 23:25:05
Writing library : Apple QuickTime
Copyright : lynda.com
Video #1
ID : 1
Format : AVC
Format/Info : Advanced Video Codec
Format profile : Main@L3.1
Format settings, CABAC : Yes
Format settings, ReFrames : 3 frames
Codec ID : avc1
Codec ID/Info : Advanced Video Coding
Duration : 4mn 58s
Bit rate mode : Variable
Bit rate : 185 Kbps
Width : 960 pixels
Height : 540 pixels
Display aspect ratio : 16:9
Frame rate mode : Constant
Frame rate : 15.000 fps
Resolution : 24 bits
Colorimetry : 4:2:0
Scan type : Progressive
Bits/(Pixel*Frame) : 0.024
Stream size : 6.60 MiB (65%)
Encoded date : UTC 2011-11-14 23:25:05
Tagged date : UTC 2011-11-14 23:25:05
Audio #2
ID : 2
Format : AAC
Format/Info : Advanced Audio Codec
Format version : Version 4
Format profile : LC
Format settings, SBR : No
Format settings, PS : Yes
Codec ID : 40
Duration : 4mn 58s
Bit rate mode : Variable
Bit rate : 96.0 Kbps
Maximum bit rate : 99.7 Kbps
Channel(s) : 2 channels
Channel positions : Front: L R
Sampling rate : 48.0 KHz
Resolution : 16 bits
Stream size : 3.41 MiB (34%)
Encoded date : UTC 2011-11-14 23:25:05
Tagged date : UTC 2011-11-14 23:25:05
No mirrors please

Cre_First_Online_Store_Drupal_Come.part1.rar
Cre_First_Online_Store_Drupal_Come.part2.rar
Cre_First_Online_Store_Drupal_Come.part3.rar