Teach Kids Programming with PHP (2013)



Teach Kids Programming with PHP (2013)
Each inquiry-oriented chapter consists of seven parts:
Teacher's Guide: Introduces the concepts in the chapter and preps the adult on places where the student might get stuck
Try It: Immediately engages the student, showing working code in action
Check It Out: Encourages the adult and student to engage with and edit some existing code
The Facts: A lecture for the student to watch
Extend It: An exploration of expanded and extended concepts
Challenge: A hands-on coding challenge for the student
Solution: A step-by-step solution presented by the author
Format : MPEG-4
Format profile : Base Media / Version 2
Codec ID : mp42
File size : 28.3 MiB
Duration : 10mn 2s
Overall bit rate : 393 Kbps
Encoded date : UTC 2013-10-28 23:42:55
Tagged date : UTC 2013-10-28 23:42:55
Writing library : Apple QuickTime
Copyright : lynda.com
Video #2
ID : 2
Format : AVC
Format/Info : Advanced Video Codec
Format profile : Main@L3.1
Format settings, CABAC : Yes
Format settings, ReFrames : 3 frames
Codec ID : avc1
Codec ID/Info : Advanced Video Coding
Duration : 10mn 2s
Bit rate mode : Variable
Bit rate : 262 Kbps
Width : 960 pixels
Height : 540 pixels
Display aspect ratio : 16:9
Frame rate mode : Constant
Frame rate : 15.000 fps
Resolution : 24 bits
Colorimetry : 4:2:0
Scan type : Progressive
Bits/(Pixel*Frame) : 0.034
Stream size : 18.8 MiB (67%)
Encoded date : UTC 2013-10-28 23:42:55
Tagged date : UTC 2013-10-28 23:42:55
Audio #1
ID : 1
Format : AAC
Format/Info : Advanced Audio Codec
Format version : Version 4
Format profile : LC
Format settings, SBR : No
Format settings, PS : Yes
Codec ID : 40
Duration : 10mn 2s
Bit rate mode : Variable
Bit rate : 128 Kbps
Maximum bit rate : 131 Kbps
Channel(s) : 2 channels
Channel positions : Front: L R
Sampling rate : 48.0 KHz
Resolution : 16 bits
Stream size : 9.19 MiB (33%)
Encoded date : UTC 2013-10-28 23:42:55
Tagged date : UTC 2013-10-28 23:42:55
No mirrors please

Teache_Kid_Programe_PHP.part1.rar
Teache_Kid_Programe_PHP.part2.rar
Teache_Kid_Programe_PHP.part3.rar