Infinite Skills - Learning Revit MEP 2014 Training Video



Infinite Skills - Learning Revit MEP 2014 Training Video
Genre: Video Training
In this Revit MEP 2014 training course, Simon Whitbread teaches you the basics of using Revit to design mechanical, electrical and plumbing systems. Using BIM (Building Information Modeling) helps you create accurate building systems from concept to construction, and Simon will show you how to take full advantage of the features Revit has to offer you.
This video tutorial is designed for beginners, and no previous experience is necessary to learn how to use Revit MEP. You start by touring the interface and understanding file concepts in Revit, and how they apply to this training. You will then learn to use the basic creation and editing tools such as copy and paste, rotate, mirror, align, offset and others. Throughout the course, you will cover important topics like; using views, spaces and zones, running an energy analysis, HVAC, hydronic piping systems, fire protection and creating electrical systems. This video training course also covers detailing and documentation, the basics of worksharing, and how to present your completed projects.
Once you have finished this computer based training course for Revit MEP 2014, you will have a strong understanding of the fundamental tools and concepts available to you in Revit for MEP application. You will be fully capable of applying this knowledge to your own mechanical, electrical and plumbing building projects. Working files are included, allowing you to follow along with the author throughout the lessons.
01. Introduction To Revit MEP 2014
02. Revit MEP 2014 - At a Glance
03. Basic Creation Tools
04. Basic Editing Tools
05. Starting A New Project
06. Views
07. Spaces And Zones
08. Building Performance Analysis
09. Systems
10. HVAC
11. Hydronic Piping Systems
12. Plumbing Systems
13. Fire Protection Systems
14. Electrical Systems
15. Electrical Panel Schedules
16. Scheduling
17. Detailing
18. Documentation
19. Worksharing
20. Presentations
21. Wrap-Up
General
Complete name : 0101_2.mp4
Format : MPEG-4
Format profile : Base Media / Version 2
Codec ID : mp42
File size : 3.98 MiB
Duration : 1mn 18s
Overall bit rate : 426 Kbps
Encoded date : UTC 2013-08-01 11:09:17
Tagged date : UTC 2013-08-01 15:09:17
Writing application : Sorenson Squeeze
Comment : Encoded by
Video
ID : 2
Format : AVC
Format/Info : Advanced Video Codec
Format settings, CABAC : Yes
Format settings, ReFrames : 4 frames
Codec ID : avc1
Codec ID/Info : Advanced Video Coding
Duration : 1mn 18s
Bit rate mode : Variable
Bit rate : 360 Kbps
Width : 1 280 pixels
Height : 720 pixels
Display aspect ratio : 16:9
Frame rate mode : Constant
Frame rate : 15.000 fps
Color space : YUV
Chroma subsampling : 4:2:0
Bit depth : 8 bits
Scan type : Progressive
Bits/(Pixel*Frame) : 0.026
Stream size : 3.33 MiB (84%)
Writing library : x264 core 129
Encoding settings : cabac=1 / ref=3 / deblock=1:0:0 / analyse=0x1:0x111 / me=hex / subme=7 / psy=1 / psy_rd=1.00:0.00 / mixed_ref=1 / me_range=16 / chroma_me=1 / trellis=1 / 8x8dct=0 / cqm=0 / deadzone=21,11 / fast_pskip=1 / chroma_qp_offset=-2 / threads=6 / lookahead_threads=1 / sliced_threads=0 / nr=0 / decimate=1 / interlaced=0 / bluray_compat=0 / constrained_intra=0 / bframes=3 / b_pyramid=2 / b_adapt=1 / b_bias=0 / direct=1 / weightb=1 / open_gop=0 / weightp=2 / keyint=150 / keyint_min=15 / scenecut=50 / intra_refresh=0 / rc_lookahead=40 / rc=2pass / mbtree=1 / bitrate=360 / ratetol=100.0 / qcomp=0.60 / qpmin=0 / qpmax=69 / qpstep=4 / cplxblur=20.0 / qblur=0.5 / ip_ratio=1.40 / aq=1:1.00
Encoded date : UTC 2013-08-01 11:09:17
Tagged date : UTC 2013-08-01 11:09:17
Audio
ID : 1
Format : AAC
Format/Info : Advanced Audio Codec
Format profile : LC
Codec ID : 40
Duration : 1mn 18s
Bit rate mode : Constant
Bit rate : 64.0 Kbps
Channel(s) : 1 channel
Channel positions : Front: C
Sampling rate : 44.1 KHz
Compression mode : Lossy
Stream size : 612 KiB (15%)
Encoded date : UTC 2013-08-01 11:09:17
Tagged date : UTC 2013-08-01 11:09:17
Screenshots
no mirrors please, Follow The Rules
no password

[email protected]
Learning Revit MEP 2014.part5.rar
Learning Revit MEP 2014.part6.rar
Learning Revit MEP 2014.part4.rar
Learning Revit MEP 2014.part3.rar
Learning Revit MEP 2014.part2.rar
Learning Revit MEP 2014.part1.rar