CreativeLIVE - Designing Apps in InDesign (2013)



CreativeLIVE - Designing Apps in InDesign (2013)
Format : Flash Video
File size : 631 MiB
Duration : 1h 25mn
Overall bit rate : 1 034 Kbps
Tagging application : Moyea FLV Lib
Video
Format : AVC
Format/Info : Advanced Video Codec
Format profile : Main@L3.1
Format settings, CABAC : Yes
Format settings, ReFrames : 1 frame
Muxing mode : Container profile=Unknown@3.1
Duration : 1h 25mn
Bit rate : 920 Kbps
Width : 854 pixels
Height : 480 pixels
Display aspect ratio : 16:9
Frame rate : 30.000 fps
Resolution : 24 bits
Colorimetry : 4:2:0
Scan type : Progressive
Bits/(Pixel*Frame) : 0.075
Stream size : 561 MiB (89%)
Audio
Format : AAC
Format/Info : Advanced Audio Codec
Format version : Version 4
Format profile : LC
Format settings, SBR : No
Format settings, PS : Yes
Duration : 1h 25mn
Bit rate : 64.0 Kbps
Channel(s) : 2 channels
Channel positions : Front: L R
Sampling rate : 44.1 KHz
Resolution : 16 bits
Stream size : 39.0 MiB (6%)
No mirrors please

Designingg_Apps_in_InDesign.part1.rar
Designingg_Apps_in_InDesign.part2.rar
Designingg_Apps_in_InDesign.part3.rar
Designingg_Apps_in_InDesign.part4.rar