Revit Architecture 2014 Essential Training (2013)



Revit Architecture 2014 Essential Training (2013)
Introduction 1m 56s
Welcome 1m 1s
Using the exercise files 55s
1. Core Concepts 14m 43s
Introducing Building Information Modeling (BIM) 3m 0s
Working in one model with many views 4m 48s
Understanding Revit element hierarchy 6m 55s
2. Getting Comfortable with the Revit Environment 1h 9m
Understanding the different versions of Revit 2m 52s
The Recent Files screen and the application menu 5m 20s
Using the ribbon and the Quick Access Toolbar (QAT) 7m 12s
Understanding context ribbons 4m 43s
Using the Properties palette 8m 31s
Stacking properties and project palettes 2m 49s
Using the Project Browser 5m 30s
Navigating views (Zoom, Pan, and Rotate) 5m 57s
Selection and modifying basics 9m 48s
Understanding selection toggles 3m 29s
Accessing Revit options 6m 19s
Understanding view extents and crop regions 6m 32s
3. Starting a Project 47m 0s
Creating a new project from a template 7m 42s
Accessing multiuser worksharing projects 4m 16s
Configuring project settings 6m 27s
Adding levels 7m 40s
Adding grids 6m 23s
Refining a layout with temporary dimensions 6m 58s
Adding columns 7m 34s
4. Modeling Basics 1h 11m
Adding walls 8m 48s
Using snaps 6m 24s
Wall properties and types 7m 27s
Locating walls 7m 27s
Using the modify tools 9m 32s
Adding doors and windows 7m 39s
Using constraints 8m 24s
Adding plumbing fixtures and other components 8m 39s
Using Autodesk Seek 4m 19s
Wall joins 3m 0s
5. Links, Imports, and Groups 1h 4m
Linking AutoCAD DWG files 10m 0s
Creating topography from a DWG link 7m 43s
Understanding CAD inserts 7m 56s
Import tips 6m 31s
Creating a group 7m 10s
Mirroring groups to create a layout 5m 3s
Creating Revit links 5m 23s
Rotating and aligning a Revit link 7m 6s
Establishing shared coordinates 6m 5s
Understanding file formats 1m 5s
6. Sketch-Based Modeling Components 54m 17s
Working with floors 8m 57s
Working with footprint roofs 6m 22s
Working with ceilings 9m 36s
Working with extrusion roofs 4m 59s
Attaching walls to roofs 3m 17s
Using the shape editing tools to create a flat roof 6m 33s
Working with slope arrows 6m 0s
Adding openings 8m 33s
7. Stairs 28m 51s
Working with stairs 7m 55s
Adding railings to stairs 3m 40s
Working with component-based stairs 9m 58s
Adding extensions to railings 7m 18s
8. Complex Walls 49m 21s
Creating a custom basic wall type 10m 17s
Understanding stacked walls 8m 12s
Adding curtain walls 8m 17s
Adding curtain grids, mullions, and panels 10m 59s
Creating wall sweeps and reveals 7m 14s
Model lines 4m 22s
9. Visibility and Graphic Controls 50m 47s
Using object styles 4m 19s
Working with visibility and graphic overrides 7m 3s
Using view templates 8m 16s
Hiding and isolating objects in a model 6m 37s
Understanding view range 7m 5s
Displaying objects above and below in plan views 6m 35s
Using the Linework tool 6m 27s
Using cutaway views 4m 25s
10. Rooms 22m 23s
Adding rooms 8m 15s
Controlling room numbering 6m 16s
Understanding room bounding elements 7m 52s
11. Schedules and Tags 32m 14s
Understanding tags 9m 58s
Adding schedule views 7m 43s
Modifying schedule views 7m 12s
Creating a key schedule 7m 21s
12. Annotation and Details 58m 36s
Adding text 7m 29s
Adding dimensions 9m 2s
Adding symbols 4m 42s
Adding legend views 4m 51s
Creating a detail callout 8m 31s
Adding detail components 8m 52s
Using arrays to duplicate objects parametrically 7m 43s
Adding filled and masking regions 7m 26s
13. The Basics of Families 42m 12s
Understanding families 2m 37s
Creating a new family from a template 6m 29s
Using reference planes, parameters, and constraints 7m 52s
Adding solid geometry 8m 40s
Cutting holes using void geometry 5m 9s
Adding blends 6m 2s
Completing the family 5m 23s
14. Sheets, Plotting, and Publishing 37m 22s
Adding sheets 7m 44s
Working with placeholder sheets 4m 3s
Aligning views with a guide grid 5m 57s
Outputting sheets to a DWF file 6m 34s
Exporting to AutoCAD 5m 42s
Plotting and creating a PDF 7m 22s
Conclusion 2m 38s
Next steps 2m 38s
Format : MPEG-4
Format profile : Base Media / Version 2
Codec ID : mp42
File size : 27.6 MiB
Duration : 7mn 56s
Overall bit rate : 485 Kbps
Encoded date : UTC 2013-06-26 01:29:26
Tagged date : UTC 2013-06-26 01:29:26
Writing library : Apple QuickTime
Copyright : lynda.com
Video #2
ID : 2
Format : AVC
Format/Info : Advanced Video Codec
Format profile : Main@L3.1
Format settings, CABAC : Yes
Format settings, ReFrames : 3 frames
Codec ID : avc1
Codec ID/Info : Advanced Video Coding
Duration : 7mn 56s
Bit rate mode : Variable
Bit rate : 355 Kbps
Width : 960 pixels
Height : 540 pixels
Display aspect ratio : 16:9
Frame rate mode : Constant
Frame rate : 15.000 fps
Resolution : 24 bits
Colorimetry : 4:2:0
Scan type : Progressive
Bits/(Pixel*Frame) : 0.046
Stream size : 20.1 MiB (73%)
Encoded date : UTC 2013-06-26 01:29:26
Tagged date : UTC 2013-06-26 01:29:26
Audio #1
ID : 1
Format : AAC
Format/Info : Advanced Audio Codec
Format version : Version 4
Format profile : LC
Format settings, SBR : No
Format settings, PS : Yes
Codec ID : 40
Duration : 7mn 56s
Bit rate mode : Variable
Bit rate : 128 Kbps
Maximum bit rate : 131 Kbps
Channel(s) : 2 channels
Channel positions : Front: L R
Sampling rate : 48.0 KHz
Resolution : 16 bits
Stream size : 7.27 MiB (26%)
Encoded date : UTC 2013-06-26 01:29:26
Tagged date : UTC 2013-06-26 01:29:26
No mirrors please

Reve_Arche_2014_Esset_Training.part1.rar
Reve_Arche_2014_Esset_Training.part2.rar
Reve_Arche_2014_Esset_Training.part3.rar
Reve_Arche_2014_Esset_Training.part4.rar
Reve_Arche_2014_Esset_Training.part5.rar
Reve_Arche_2014_Esset_Training.part6.rar