VTC - Adobe Dreamweaver CS5



VTC - Adobe Dreamweaver CS5
Format : MPEG-4
Format profile : QuickTime
Codec ID : qt
File size : 10.2 MiB
Duration : 8mn 2s
Overall bit rate : 178 Kbps
Encoded date : UTC 2010-08-30 13:02:12
Tagged date : UTC 2010-08-30 13:02:13
Writing library : Apple QuickTime
Video #2
ID : 2
Format : AVC
Format/Info : Advanced Video Codec
Format settings, CABAC : No
Format settings, ReFrames : 2 frames
Codec ID : avc1
Codec ID/Info : Advanced Video Coding
Duration : 8mn 2s
Bit rate mode : Variable
Bit rate : 128 Kbps
Width : 800 pixels
Height : 600 pixels
Display aspect ratio : 4:3
Frame rate mode : Constant
Frame rate : 7.500 fps
Resolution : 24 bits
Colorimetry : 4:2:0
Scan type : Progressive
Bits/(Pixel*Frame) : 0.036
Stream size : 7.37 MiB (72%)
Encoded date : UTC 2010-08-30 13:01:03
Tagged date : UTC 2010-08-30 13:02:13
colour_primaries : BT.601-6 525, BT.1358 525, BT.1700 NTSC, SMPTE 170M
transfer_characteristics : BT.709-5, BT.1361
matrix_coefficients : BT.601-6 525, BT.1358 525, BT.1700 NTSC, SMPTE 170M
Audio #1
ID : 1
Format : AAC
Format/Info : Advanced Audio Codec
Format version : Version 4
Format profile : LC
Format settings, SBR : No
Format settings, PS : Yes
Codec ID : 40
Duration : 8mn 1s
Bit rate mode : Constant
Bit rate : 48.0 Kbps
Channel(s) : 2 channels
Channel positions : Front: L R
Sampling rate : 44.1 KHz
Resolution : 16 bits
Stream size : 2.70 MiB (26%)
Encoded date : UTC 2010-08-30 13:01:03
Tagged date : UTC 2010-08-30 13:02:13
No mirrors please

[email protected]
VTC-_Ado_Dreamweave_CS5.part1.rar
VTC-_Ado_Dreamweave_CS5.part2.rar
VTC-_Ado_Dreamweave_CS5.part3.rar
VTC-_Ado_Dreamweave_CS5.part4.rar