Ask Video - Live 9 400: Max For Live For Musicians



Ask Video - Live 9 400: Max For Live For Musicians
Live 9 Suite now includes Max For Live. This course, designed specifically for musicians, teaches you how to add a new level of creativity to your Rack using the programming power of Max For Live! A big part of the Ableton Live experience is about approaching music in a non-linear way where you can create audio landscapes that are uniquely yours. But what if you could program your own MIDI and audio devices to plug directly into the rack? You can, using Max For Live.
However, just the mentioning of the word 'programming' usually is enough to scare the X!%!# out of most musicians. But, have no fear, because this M4L intro course is designed with you, the musician, in mind.
Rishabh Rajan starts off this course by teaching you Max's unique visual programming language. If you can plug in a guitar or hook up a MIDI/audio interface, then you will learn to program Max
So join Rishabh Rajan and lose your programming virginity in this inspiring introduction to Ableton Live's Max For Live!
Content:
01. Intro to Max for Live (01:27)
02. What is Max for Live? (02:38)
03. Three Types of Devices (03:20)
04. Interface Options (08:05)
05. Visual Programming Language (02:44)
06. Signal Flow and the Trigger (04:02)
07. The Bang and the Message (06:00)
08. Hot and Cold Inlets (07:19)
09. MIDI Info - Part 1 (04:57)
10. MIDI Info - Part 2 (02:28)
11. MIDI Info - Part 3 (02:34)
12. MIDI Note Harmonizer - Part 1 (04:04)
13. MIDI Note Harmonizer - Part 2 (04:52)
14. Volume Control (04:54)
15. Pan & Balance Control (03:09)
16. Amplitude Modulation - Part 1 (02:20)
17. Amplitude Modulation - Part 2 (03:12)
18. Low Pass Filter (06:33)
19. Cutoff Modulation (04:28)
20. Modulation Range and Sync (04:21)
21. Organizing the Device Interface (05:15)
22. Setting up the Multimode Filter (05:50)
23. Testing the Multimode Filter (02:02)
24. The Live Object Model (03:40)
25. live.path and live.object (04:37)
26. live.observer (02:42)
27. live.remote~ (04:02)
28. Controlling Device Parameters - Part 1 (04:42)
29. Controlling Device Parameters - Part 2 (03:48)
General
Complete name : 10. MIDI Info - Part 2.mp4
Format : MPEG-4
Format profile : Base Media / Version 2
Codec ID : mp42
File size : 5.05 MiB
Duration : 2mn 28s
Overall bit rate : 284 Kbps
Encoded date : UTC 2013-03-13 12:07:28
Tagged date : UTC 2013-03-13 19:07:29
Writing application : Sorenson Squeeze
Comment : Encoded by
Video #2
ID : 2
Format : AVC
Format/Info : Advanced Video Codec
Format settings, CABAC : Yes
Format settings, ReFrames : 4 frames
Codec ID : avc1
Codec ID/Info : Advanced Video Coding
Duration : 2mn 28s
Bit rate mode : Variable
Bit rate : 182 Kbps
Width : 1 280 pixels
Height : 720 pixels
Display aspect ratio : 16:9
Frame rate mode : Constant
Frame rate : 30.000 fps
Color space : YUV
Chroma subsampling : 4:2:0
Bit depth : 8 bits
Scan type : Progressive
Bits/(Pixel*Frame) : 0.007
Stream size : 3.24 MiB (64%)
Writing library : x264 core 115
Encoding settings : cabac=1 / ref=3 / deblock=1:0:0 / analyse=0x1:0x111 / me=hex / subme=7 / psy=1 / psy_rd=1.00:0.00 / mixed_ref=1 / me_range=16 / chroma_me=1 / trellis=1 / 8x8dct=0 / cqm=0 / deadzone=21,11 / fast_pskip=1 / chroma_qp_offset=-2 / threads=1 / sliced_threads=0 / nr=0 / decimate=1 / interlaced=0 / bluray_compat=0 / constrained_intra=0 / bframes=3 / b_pyramid=2 / b_adapt=1 / b_bias=0 / direct=1 / weightb=1 / open_gop=0 / weightp=2 / keyint=300 / keyint_min=30 / scenecut=45 / intra_refresh=0 / rc_lookahead=40 / rc=crf / mbtree=1 / crf=23.0 / qcomp=0.60 / qpmin=0 / qpmax=69 / qpstep=4 / ip_ratio=1.40 / aq=1:1.00
Encoded date : UTC 2013-03-13 12:07:28
Tagged date : UTC 2013-03-13 12:07:28
Audio #1
ID : 1
Format : AAC
Format/Info : Advanced Audio Codec
Format profile : LC
Codec ID : 40
Duration : 2mn 27s
Bit rate mode : Constant
Bit rate : 96.0 Kbps
Channel(s) : 2 channels
Channel positions : Front: L R
Sampling rate : 44.1 KHz
Compression mode : Lossy
Stream size : 1.69 MiB (34%)
Encoded date : UTC 2013-03-13 12:07:28
Tagged date : UTC 2013-03-13 12:07:28Screenshots
For more, Visit my
no mirrors please, Follow The Rules

[email protected]
Ask Video - Live 9 400. Max For Live For Musicians.part3.rar
Ask Video - Live 9 400. Max For Live For Musicians.part1.rar
Ask Video - Live 9 400. Max For Live For Musicians.part2.rar