Udemy - Multi page online form with PHP, MySQL and Session Variables (2013)



Udemy - Multi page online form with PHP, MySQL and Session Variables (2013)
Format : MPEG-4
Format profile : Base Media
Codec ID : isom
File size : 16.0 MiB
Duration : 8mn 45s
Overall bit rate : 256 Kbps
Encoded date : UTC 2012-04-15 17:17:10
Tagged date : UTC 2012-04-15 17:17:10
Video #1
ID : 1
Format : AVC
Format/Info : Advanced Video Codec
Format settings, CABAC : No
Format settings, ReFrames : 3 frames
Codec ID : avc1
Codec ID/Info : Advanced Video Coding
Duration : 8mn 45s
Bit rate mode : Variable
Bit rate : 210 Kbps
Maximum bit rate : 2 220 Kbps
Width : 800 pixels
Height : 600 pixels
Display aspect ratio : 4:3
Frame rate mode : Constant
Frame rate : 25.000 fps
Resolution : 24 bits
Colorimetry : 4:2:0
Scan type : Progressive
Bits/(Pixel*Frame) : 0.017
Stream size : 13.1 MiB (82%)
Writing library : x264 core 120 r2324M 2ce5bdd
Encoding settings : cabac=0 / ref=3 / deblock=1:0:0 / analyse=0x1:0x111 / me=hex / subme=4 / psy=1 / psy_rd=1.00:0.00 / mixed_ref=0 / me_range=16 / chroma_me=1 / trellis=1 / 8x8dct=0 / cqm=0 / deadzone=21,11 / fast_pskip=1 / chroma_qp_offset=0 / threads=48 / sliced_threads=0 / nr=0 / decimate=1 / interlaced=0 / bluray_compat=0 / constrained_intra=0 / bframes=0 / weightp=0 / keyint=75 / keyint_min=7 / scenecut=40 / intra_refresh=0 / rc_lookahead=20 / rc=crf / mbtree=1 / crf=22.0 / qcomp=0.60 / qpmin=0 / qpmax=69 / qpstep=4 / ip_ratio=1.40 / aq=1:1.00
Encoded date : UTC 2012-04-15 17:16:44
Tagged date : UTC 2012-04-15 17:17:11
Audio #2
ID : 2
Format : AAC
Format/Info : Advanced Audio Codec
Format version : Version 4
Format profile : LC
Format settings, SBR : No
Format settings, PS : Yes
Codec ID : 40
Duration : 8mn 37s
Bit rate mode : Variable
Bit rate : 44.9 Kbps
Maximum bit rate : 50.1 Kbps
Channel(s) : 2 channels
Channel positions : Front: L R
Sampling rate : 44.1 KHz
Resolution : 16 bits
Stream size : 2.77 MiB (17%)
Encoded date : UTC 2012-04-15 17:17:11
Tagged date : UTC 2012-04-15 17:17:11
No mirrors please

[email protected]
M_pages_form_PHP_MySQL_Variabless.part1.rar
M_pages_form_PHP_MySQL_Variabless.part2.rar
M_pages_form_PHP_MySQL_Variabless.part3.rar