Sultry Slow Moves with Sadie



Sultry Slow Moves with Sadie
Genre: Video Training, Belly Dance
It is very varied and includes breathing exercises, torso and hip movements, circles, figure 8s, belly rolls, 5 different combos and a performance to chiftetelli rhythm. The instruction is clear and Sadie demonstrates perfectly what she is talking about.
General
Complete name : Sidie_Sultry.avi
Format : AVI
Format/Info : Audio Video Interleave
Format profile : OpenDML
File size : 1.16 GiB
Duration : 2h 5mn
Overall bit rate : 1 321 Kbps
Video
ID : 0
Format : MPEG-4 Visual
Format profile : Advanced Simple@L1
Format settings, BVOP : 2
Format settings, QPel : No
Format settings, GMC : No warppoints
Format settings, Matrix : Default (H.263)
Codec ID : divx
Codec ID/Hint : DivX
Duration : 2h 5mn
Bit rate : 1 240 Kbps
Width : 640 pixels
Height : 480 pixels
Display aspect ratio : 4:3
Frame rate : 29.970 fps
Color space : YUV
Chroma subsampling : 4:2:0
Bit depth : 8 bits
Scan type : Progressive
Compression mode : Lossy
Bits/(Pixel*Frame) : 0.135
Stream size : 1.09 GiB (94%)
Writing library : Lavc50.0.0
Audio
ID : 1
Format : MPEG Audio
Format version : Version 1
Format profile : Layer 3
Mode : Joint stereo
Mode extension : MS Stereo
Codec ID : 55
Codec ID/Hint : MP3
Duration : 2h 5mn
Bit rate mode : Constant
Bit rate : 64.0 Kbps
Channel(s) : 2 channels
Sampling rate : 48.0 KHz
Compression mode : Lossy
Stream size : 57.5 MiB (5%)
Alignment : Aligned on interleaves
Interleave, duration : 24 ms (0.72 video frame)
Writing library : LAME3.96.1
Screenshots
no mirrors please.
no password

Sidie_Sultry.part4.rar
Sidie_Sultry.part3.rar
Sidie_Sultry.part1.rar
Sidie_Sultry.part2.rar